Quick Browse
Movies
TV shows
Music
Games
Applications
Anime
Other
Facebook
Advertising

Friends
Torrent Download
Movie4u
1337x.to
Torrent Downloads




Verified torrent Real Steel (2011) DVDRip XviD-MAXSPEED


    Seeders : 0      Leechers : 0
Hash :6393A80E64EB63E9CE94FF76424CECCDE6918F09
Added :1 Year+ by piratepediaVerified torrent uploader in Movies
Size :1.42 GB
Stream :WATCH ONLINE @ Movie4u


Real Steel (2011) DVDRip XviD-MAXSPEED
Free and Fast Download with Usenet 300GB+ free







Trackers List

Tracker NameLast CheckStatusSeedersLeechers




Torrent File Content (8 files)


Real Steel (2011) DVDRip XviD-MAXSPEED
     Real Steel (2011) DVDRip XviD-MAXSPEED www.torentz.3xforum.ro.avi -
1.41 GB

     sample.avi -
9.3 MB

     screencaps.jpeg -
534.2 KB

     Real Steel (2011) DVDRip XviD-MAXSPEED.nfo -
2.63 KB

     Torrent downloaded from Demonoid.me.txt -
46 bytes

     Torrent downloaded from Extratorrent.com.txt -
40 bytes

     Torrent downloaded from Rarbg.com.txt -
33 bytes

     Torrent downloaded from h33t.com.txt -
32 bytes



Description



http://www.hotimg.com/direct/6d5Kqx6.jpg


Screens:

http://www.hotimg.com/direct/TyfKQe3.jpg

http://www.hotimg.com/direct/cXgjMfQ.jpg

http://www.hotimg.com/direct/Fvq6qeU.jpg

http://www.hotimg.com/direct/wxF5KrY.jpg


Alternative:

[code]http://www.postimg.com/image/57000/photo-56568.jpg
http://www.postimg.com/image/57000/photo-56569.jpg
http://www.postimg.com/image/57000/photo-56570.jpg
http://www.postimg.com/image/57000/photo-56571.jpg[/code]

ScreenCaps:

http://www.postimg.com/57000/photo-56574.jpg


[code]Real Steel (2011) DVDRip XviD-MAXSPEED
Format : AVI
Format/Info : Audio Video Interleave
Format profile : OpenDML
File size : 1.41 GiB
Duration : 2h 6mn
Overall bit rate : 1 588 Kbps
Writing application : VirtualDubMod 1.5.10.2 (build 2542/release)
Writing library : VirtualDubMod build 2542/release
Original source form : MAX TORRENTZ
Copyright : SIGISMUNT

Video
ID : 0
Format : MPEG-4 Visual
Format profile : [email protected]
Format settings, BVOP : Yes
Format settings, QPel : No
Format settings, GMC : No warppoints
Format settings, Matrix : Default (H.263)
Codec ID : XVID
Codec ID/Hint : XviD
Duration : 2h 6mn
Bit rate : 1 262 Kbps
Width : 720 pixels
Height : 304 pixels
Display aspect ratio : 2.35:1
Frame rate : 23.976 fps
Resolution : 24 bits
Colorimetry : 4:2:0
Scan type : Progressive
Bits/(Pixel*Frame) : 0.241
Stream size : 1.12 GiB (80%)
Writing library : XviD 1.2.1 (UTC 2008-12-04)

Audio
ID : 1
Format : AC-3
Format/Info : Audio Coding 3
Codec ID : 2000
Duration : 2h 6mn
Bit rate mode : Constant
Bit rate : 320 Kbps
Channel(s) : 6 channels
Channel positions : Front: L C R, Surround: L R, LFE
Sampling rate : 48.0 KHz
Stream size : 290 MiB (20%)
Alignment : Aligned on interleaves
Interleave, duration : 64 ms (1.53 video frames)
Interleave, preload duration : 192 ms

Source: DVD (perfect a/v/sync quality,sample included)
This torrent is not seedbox supported,please seed it to the MAX

Note:If you have something to offer as early releases,seedboxes,links,accounts,etc
please contact us on piratepedia[@]msn/gmail.com or our website torentz 3xforum ro

How To Get Your Maxspeed (uTorrent)

Torrent Client - Preferences - Bandwidth - Number of connections - Set aprox. 500 for each
Torrent Client - Preferences - BiTorrent - Protocol Encryption - Forced
Bandwidth Allocation - High (Set download/upload limit - Unlimited)
Stop Other Active Torrents - Start downloading and wait for connections.
Enjoy and Seed for at least 1:1 ratio. Don't forget to say thanks/leave reviews.
Before downloading you should check/google search sample "release name""sample".
Greets to all actual/future p2p/scene QUALITY groups and affiliate websites.
Don't trust IMDb robot or bad ratings,always watch some trailers first.
Ignore stupid comments/fake/mislabeled/no-DVDrips/CAM/TS/RAR uploads.
Please spread this release/torrent to your friends/forums/etc.
If you need translation subs visit some subtitles sites.
Report if you see online streaming or other spam links.
Recommended movie player VLC PLAYER.[/code]

Related torrents

Torrent NameAddedSizeSeedLeechHealth
2 months ago - in Movies1.31 GB00
4 months ago - in Movies6.56 GB00
Verified torrent
5 months ago - in Movies1.34 GB10
5 months ago - in Movies800.95 MB30
1 Year+ - in Movies4.3 GB398

Comments (0 Comments)




Please login or create a FREE account to post comments

Latest Searches

| tokyo hot n0886 momoko oishi jav uncensored | Rolling Stones Blue Lonesome | anissa kate2012 | Neighbors 2 Sorority Rising 2016 1080p x265 10bit Joy | the weeknd can t | teencreeper makeena | sm miracle hd | good old games 5 | naf 13 05 27 tessa lane mp4 | comedy underground with dave attell s01e05 hdtv x264 yestv eztv |