Quick Browse
TV shows

Latest Articles

Torrent Download
Free Movies
Torrent Downloads

Verified torrent Real Steel 2011 TS FULLVIDEO XviD AC3 HQ

    Seeders : 0      Leechers : 0

Hash :1D11A42BBA4F5AA5B1E34D5E93F64B8188E0FA7C
Added :1 Year+ by supersurfVerified torrent uploader in Movies
Size :1.53 GB
Stream :Watch Online Full Movie @ Movie4u
Share :

Real Steel 2011 TS FULLVIDEO XviD AC3 HQ
Download Direct And Anonymously

Warning! Do not Download Torrents Without a VPN!
Your IP Address is .   And Location is
Your Internet Provider and Government can track your torrent Activity!  Hide your IP ADDRESS with a VPN!
We Strongly Recommend Using CyberGhost VPN to Anonymize your Torrenting.

Note :

Please Update (Trackers Info) Before Downloading Torrents to See Updated Seeders And Leechers for Batter Download Speed.

Trackers List

Tracker NameLast CheckStatusSeedersLeechers

Torrent File Content (3 files)

     Real.Steel.2011.TS.FULLVIDEO.XviD.AC3.HQ.Hive-CM8.avi -
1.51 GB

     sample.avi -
18.88 MB

     Real.Steel.2011.TS.FULLVIDEO.XviD.AC3.HQ.Hive-CM8.nfo -
5.8 KB


Real Steel 2011 TS FULLVIDEO XviD AC3 HQ

Thx Hive

CM8 Doing It Right The First Time


Video: Russian TS Zhivaja.stal.2011.D.TS

Audio: Reborn/Illuminati/Suckit

thx to audio supplier and to the previous audio syncer


well another days work on a new movie with usual problems.
The Russian Video itself was basically ok just dark and colourless.
Had to cut the video in 6 parts, not all had the same problems.
added brighness,sharpness,chroma,contrast and rgb all when needed differently.
blurred the two spots where relizlab video logo appears and made new video out of it.
Took the audiotrack from the illuminati version, cleaned it up and wanted to mux it to the russian video but i noticed 2 mins audio is missing, the russian video is a lot longer.
At 8 spots video was missing and was brutally cut out, this scenes have each a length from 6 up to 30 secs.
There is nearly no voice spoken in that parts. some needed only music, the biggest cuts were inside robot fighting scenes.
who wanna miss that parts? NOT ME
So i either inserted random audio at the parts that needed no explanation and for that robot fighting scenes i made a audio looping from the fighting scene itself. basically the audio at that parts is only plonking metal at each other, so you shouldnt notice that major, the audio comes right back in when there is voice.
In the end i just fixed minor sync issues that were either there or due to syncing, all in all very watchable.
it wont get better than that and you can at least enjoy a full movie.

Video: 720x304 @bitrate 1600 2pass
Audio: English AC3 2.0 Stereo
Sample: yes included


Complete name : Real.Steel.2011.TS.FULLVIDEO.XviD.AC3.HQ.Hive-CM8.avi
Format : AVI
Format/Info : Audio Video Interleave
File size : 1.51 GiB
Duration : 1h 55mn
Overall bit rate : 1 865 Kbps
Writing application : Nandub v1.0rc2
Writing library : Nandub build 1853/release

ID : 0
Format : MPEG-4 Visual
Format profile : Advanced [email protected]
Format settings, BVOP : 2
Format settings, QPel : Yes
Format settings, GMC : No warppoints
Format settings, Matrix : Default (H.263)
Muxing mode : Packed bitstream
Codec ID : XVID
Codec ID/Hint : XviD
Duration : 1h 55mn
Bit rate : 1 600 Kbps
Width : 720 pixels
Height : 304 pixels
Display aspect ratio : 2.35:1
Frame rate : 25.000 fps
Color space : YUV
Chroma subsampling : 4:2:0
Bit depth : 8 bits
Scan type : Progressive
Compression mode : Lossy
Bits/(Pixel*Frame) : 0.292
Stream size : 1.30 GiB (86%)
Writing library : XviD 1.2.1 (UTC 2008-12-04)

ID : 1
Format : AC-3
Format/Info : Audio Coding 3
Mode extension : CM (complete main)
Codec ID : 2000
Duration : 1h 55mn
Bit rate mode : Constant
Bit rate : 256 Kbps
Channel(s) : 2 channels
Channel positions : Front: L R
Sampling rate : 48.0 KHz
Bit depth : 16 bits
Compression mode : Lossy
Delay relative to video : 28ms
Stream size : 212 MiB (14%)
Alignment : Split accross interleaves
Interleave, duration : 40 ms (1.00 video frame)
Interleave, preload duration : 500 ms


Set in the near future, where robot boxing is a top sport, a struggling promoter feels he's found a champion in a discarded robot. During his hopeful rise to the top, he discovers he has an 11-year-old son who wants to know his father.


Hugh Jackman ... Charlie Kenton
Dakota Goyo ... Max Kenton
Evangeline Lilly ... Bailey Tallet
Anthony Mackie ... Finn
Kevin Durand ... Ricky

ScReeN SHoTs






Related torrents

Torrent NameAddedSizeSeedLeechHealth
1 Bad
1 Year+ - in Movies1.53 GB345120
1 Year+ - in Movies1.53 GB60153
1 Year+ - in Movies1.53 GB019
7 months ago - in Movies702.08 MB00
1 Year+ - in Movies4.3 GB00

Note :

Feel free to post any comments about this torrent, including links to Subtitle, samples, screenshots, or any other relevant information. Please Dont Download anything from Comments, And Dont Post Links to Streaming Sites like Fmovies, Xmovies8, 123Movies, GoMovies, CMovieshd, Solarmovie, Watchfree, Putlockers, GoStream, m4ufree etc.

Comments (0 Comments)

Please login or create a FREE account to post comments

Latest Searches

| Xena Warrior Princess 1080p | pet shop boys dts | Vice City Vacation jade | aoa cream baby im jelly | winchester haunted | nora roberts less of a stranger | nanda 1 | bowie diamond | AirMech Command | Sidewalk Prophets Something Different 320Kbps 2015 sandokhan |