Quick Browse
Movies
TV shows
Music
Games
Applications
Anime
Other
Facebook
Advertising

Friends
Torrent Download
Movie4u
1337x.to
Torrent Downloads




Real Steel 2011 TS XviD-ILLUMINATI


    Seeders : 0      Leechers : 7
Hash :4810BFB711183CC4080B3A09BA18D22091C9AD01
Added :1 Year+ by jumbotorrentsxVerified torrent uploader in Movies
Size :1.19 GB
Stream :WATCH ONLINE @ Movie4u


Real Steel 2011 TS XviD-ILLUMINATI
Free and Fast Download with Usenet 300GB+ free







Trackers List

Tracker NameLast CheckStatusSeedersLeechers




Torrent File Content (6 files)


Real Steel 2011 TS XviD-ILLUMINATI
     Real Steel 2011 TS XviD-ILLUMINATI.avi -
1.19 GB

     Real Steel 2011 TS XviD-ILLUMINATI.nfo -
2.12 KB

    Screenshots
          jmqy89ew6aqcylxjvebc.png -
135.54 KB

          w0kkzjujpvb9ivqz30a.png -
117.51 KB

     Torrent downloaded from Demonoid.me.txt -
46 bytes

     Torrent downloaded from Limetorrents.com.txt -
48 bytes



Description



http://shareimage.org/images/c2ch2vlea955n92x48.jpg


http://shareimage.org/images/jmqy89ew6aqcylxjvebc.png


http://shareimage.org/images/w0kkzjujpvb9ivqz30a.png


[code]
Real Steel 2011 TS XviD - ILLUMINATI

Title: Real Steel 2011 TS XviD - ILLUMINATI
Format: Xvid
Subtitles: No
Sample Included: Yes


source:
Audio : SUCKIT - Many Thanx
Video: RELIZLAB source files - Many Thanx

imDb: http://www.imdb.com/title/tt0433035/

Plot:
Set in the near future, where robot boxing is a top sport,
a struggling promoter feels he's found a champion in a
discarded robot. During his hopeful rise to the top,
he discovers he has an 11-year-old son who wants
to know his father.

Info:

Video
ID : 0
Format : MPEG-4 Visual
Format profile : Advanced [email protected]
Format settings, BVOP : 2
Format settings, QPel : No
Format settings, GMC : No warppoints
Format settings, Matrix : Default (H.263)
Codec ID : XVID
Codec ID/Hint : XviD
Duration : 1h 54mn
Bit rate : 1 349 Kbps
Width : 720 pixels
Height : 304 pixels
Display aspect ratio : 2.35:1
Frame rate : 25.000 fps
Color space : YUV
Chroma subsampling : 4:2:0
Bit depth : 8 bits
Scan type : Progressive
Compression mode : Lossy
Bits/(Pixel*Frame) : 0.247
Stream size : 1.08 GiB (91%)

Audio
ID : 1
Format : MPEG Audio
Format version : Version 1
Format profile : Layer 3
Mode : Joint stereo
Mode extension : MS Stereo
Codec ID : 55
Codec ID/Hint : MP3
Duration : 1h 54mn
Bit rate mode : Constant
Bit rate : 128 Kbps
Channel(s) : 2 channels
Sampling rate : 44.1 KHz
Compression mode : Lossy
Stream size : 105 MiB (9%)
Alignment : Aligned on interleaves
Interleave, duration : 40 ms (1.00 video frame)
Writing library : LAME3.98r
Encoding settings : -m j -V 4 -q 2 -lowpass 17 -b 128

Release Notes:

Here we have a very nice release for all Real Steel 2011 TS
XviD - ILLUMINATI Video is nice overall gotter say thanks to
relizlab tho for the sourcefiles for us to use on
this release.

Onto audio which honestly must say sounds very nice which was
given to use on behalf of SUCKiT so once again must say thanks
for the audio as with out the audio the release wouldnt be
what it is. There is a sample included check it out before
you download and if u dont like the sample.....
go to the cinema and watch it or wait for bluray
[/code]

Related torrents

Torrent NameAddedSizeSeedLeechHealth
1 Year+ - in Movies1.46 GB03
2 Good
1 Year+ - in Movies1.21 GB00
Verified torrent
1 Year+ - in Movies1.21 GB10
1 Year+ - in Movies1.21 GB368
1 Year+ - in Movies1.21 GB00

Comments (0 Comments)




Please login or create a FREE account to post comments

Latest Searches

| Busty gets a Huge Cock | Morgan 2016 BRRip XviD | Mai Dire Grande Fratello S12e05 | Busty Huge Cock | 2 Fast 2 Furious 2009 x265 | whose line is it anyway s01e01 | PSP WWE Smackdown Vs Raw 2010 EUR FIX ESPALPSP com rar | cuckolding revenge | independence day p | Euphoria cover |