Quick Browse
Movies
TV shows
Music
Games
Applications
Anime
Other
Facebook
Advertising

Friends
Torrent Download
Movie4u
1337x.to
Torrent Downloads




Verified torrent Rec[2007]DvDrip-LW


    Seeders : 0      Leechers : 0
Hash :E62C5E27F8FBC383B9D66628453F60BD30CB3804
Added :1 Year+ by XoLWoXVerified torrent uploader in Movies
Size :699.74 MB
Stream :WATCH ONLINE @ Movie4u


Rec[2007]DvDrip-LW
Free and Fast Download with Usenet 300GB+ free







Trackers List

Tracker NameLast CheckStatusSeedersLeechers
udp://tracker.coppersurfer.tk:801 Year+success00
http://bigfoot1942.sektori.org:6969/announce1 Year+success00
http://torrent.gresille.org/announce1 Year+success00
http://tracker.nwps.ws:6969/announce1 Year+success00
udp://open.demonii.com:1337/announce1 Year+success00
udp://tracker.openbittorrent.com:80/announce1 Year+success00
udp://9.rarbg.com:2710/announce1 Year+success00
http://tracker.trackerfix.com/announce1 Year+success00




Torrent File Content (8 files)


Rec[2007]DvDrip-LW
    Cover
          R-Cover.jpg -
65.75 KB

    Info
          Movie Info.nfo -
14.75 KB

          Movie Info.txt -
3.21 KB

          README.nfo -
1.68 KB

    Movie
          Rec[2007]DvDrip-LW.avi -
699.66 MB

    Trackers
          Shipwreck.me.nfo -
1.15 KB

          Downloaded_from_L0calh0st.ws.url.txt -
109 bytes

          tracked_by_h33t_com.txt -
23 bytes



Description



http://i45.tinypic.com/14l68mt.jpg

[color=red]-------------------------------------------------[/color]
http://i48.tinypic.com/k13v48.jpg

[color=red]-------------------------------------------------[/color]
File Name : Rec[2007]DvDrip-LW
Type : Movie
Format : AVI
File Size : 699 MB
Duration : 01:15:14
Language : English
Source : DvD
Subtitles : None
Genre : Drama | Horror | Thriller
IMDB Link : http://www.imdb.com/title/tt1038988/
IMDB Rating : 7.7/10
IMDB Votes : 33,091 Votes
[color=red]-------------------------------------------------[/color]
http://i46.tinypic.com/5n13z8.jpg

[color=red]-------------------------------------------------[/color]
Format : MPEG-4 Visual
Format profile : Advanced [email protected]
Format settings, BVOP : Yes
Format settings, QPel : No
Format settings, GMC : No warppoints
Format settings, Matrix : Default (H.263)
Codec ID : XVID
Codec ID/Hint : XviD
Duration : 1h 15mn
Bit rate : 1 155 Kbps
Width : 592 pixels
Height : 320 pixels
Display aspect ratio : 1.850
Frame rate : 25.000 fps
Resolution : 8 bits
Colorimetry : 4:2:0
Scan type : Progressive
Bits/(Pixel*Frame) : 0.244
Stream size : 621 MiB (89%)
Writing library : XviD 1.0.3
[color=red]-------------------------------------------------[/color]
http://i45.tinypic.com/14lof2g.jpg

[color=red]-------------------------------------------------[/color]
Format : MPEG Audio
Format version : Version 1
Format profile : Layer 3
Mode : Joint stereo / MS Stereo
Codec ID : 55
Codec ID/Hint : MP3
Duration : 1h 15mn
Bit rate mode : Variable
Bit rate : 133 Kbps
Nominal bit rate : 128 Kbps
Channel(s) : 2 channels
Sampling rate : 48.0 KHz
Stream size : 71.3 MiB (10%)
Alignment : Aligned on interleaves
Interleave, duration : 24 ms (0.60 video frame)
Interleave, preload duration : 185 ms
Writing library : LAME3.90
[color=red]-------------------------------------------------[/color]
http://i46.tinypic.com/16ih2fo.jpg

[color=red]-------------------------------------------------[/color]
Trapped in a quarantined Barcelona apartment building
with residents, firefighters and a growing horde of
ravenous zombies, television reporter Angela (Manuela
Velasco) and her cameraman, Pablo, record brutal deaths
and terrifying events while trying to stay alive. Filmed
entirely from unseen Pablo's point of view, this tension-
filled Spanish horror film thrills viewers with its
aggressive action. Paco Plaza and Jaume Balagueró direct.

Cast: Manuela Velasco, Javier Botet

Director: Jaume Balaguero, Paco Plaza
[color=red]-------------------------------------------------[/color]

http://i49.tinypic.com/2vi137p.jpg

http://i48.tinypic.com/vncgg8.jpg

http://i48.tinypic.com/wrdv1k.jpg

http://i47.tinypic.com/2r3bf5s.jpg

http://i49.tinypic.com/iwjkfc.jpg

http://i49.tinypic.com/15yg8ow.jpg

Related torrents

Torrent NameAddedSizeSeedLeechHealth
1 Year+ - in Movies1.61 GB00
4 months ago - in Movies1.26 GB00
1 Year+ - in Movies701.21 MB108
7 months ago - in Movies774.75 MB00
7 months ago - in Movies1.86 GB00

Comments (0 Comments)




Please login or create a FREE account to post comments

Latest Searches

| air hawk 4 desert storm | 16 Sluts For 1 Cock POV Cum Swapping Extravaganza | nashville s04e14 1080p | forza horizon 3 skidrow | around the world la la la | the dark pond | pretty little liars season 6 | Amy Anderssen Live Show | T I we go hard | Air Conflicts Pacific Carriers FLT |