Quick Browse
TV shows

Latest Articles

Torrent Download
Free Movies
Torrent Downloads

Verified torrent Red Riding Hood 2011 R5 LiNE XViD - IMAGiNE

    Seeders : 0      Leechers : 0

Hash :CFA2EFED983B6712ACD8CF87ECCD70EE040366D0
Added :1 Year+ by memory100Verified torrent uploader in Movies
Size :1.4 GB
Stream :Watch Online Full Movie @ Movie4u
Share :

Red Riding Hood 2011 R5 LiNE XViD - IMAGiNE
Download Direct And Anonymously

Warning! Do not Download Torrents Without a VPN!
Your IP Address is .   And Location is
Your Internet Provider and Government can track your torrent Activity!  Hide your IP ADDRESS with a VPN!
We Strongly Recommend Using CyberGhost VPN to Anonymize your Torrenting.

Note :

Please Update (Trackers Info) Before Downloading Torrents to See Updated Seeders And Leechers for Batter Download Speed.

Trackers List

Tracker NameLast CheckStatusSeedersLeechers
udp://tracker.coppersurfer.tk:8011 months agosuccess00
udp://tracker.ilibr.org:6969/announce11 months agosuccess00
http://tracker.trackerfix.com/announce11 months agosuccess00
udp://ipv4.tracker.harry.lu:80/announce11 months agosuccess00
udp://9.rarbg.com:2710/announce11 months agosuccess00

Torrent File Content (9 files)

Red Riding Hood 2011 R5 LiNE XViD - IMAGiNE
     Budget seedboxs.txt -
44 bytes

     NW RG.nfo -
12.96 KB

     Red Riding Hood 2011 R5 LiNE XViD - IMAGiNE SAMPLE.avi -
24.52 MB

     Red Riding Hood 2011 R5 LiNE XViD - IMAGiNE.NFO -
5.05 KB

     Red Riding Hood 2011 R5 LiNE XViD - IMAGiNE.avi -
1.37 GB

     Torrent downloaded from Demonoid.me.txt -
46 bytes

     dreamthe.net.txt -
91 bytes

     northernwarriors.net.txt -
135 bytes

     sceneunderground.org.txt -
77 bytes



Red Riding Hood 2011 R5 LiNE XViD - IMAGiNE

Ripper ...........: IMAGiNE IMDB Rating.......: 4.9/10
Video Codec.......: XVID Release Date......: 25/05/11
Audio Codec.......: MP3 Theatre Date......: 11/03/11
Audio Bitrate.....: 128 Runtime.......: 1h 39mn
Subtitles.........: NIL Language..........: ENGLISH
Resolution......: 720 x 304 IMDb URL..........: http://www.imdb.com/title/tt1486185/


ID : 0
Format : MPEG-4 Visual
Format profile : Advanced [email protected]
Format settings, BVOP : 2
Format settings, QPel : No
Format settings, GMC : No warppoints
Format settings, Matrix : Default (MPEG)
Muxing mode : Packed bitstream
Codec ID : XVID
Codec ID/Hint : XviD
Duration : 1h 39mn
Bit rate : 1 827 Kbps
Width : 720 pixel
Height : 304 pixels
Display aspect ratio : 2.35:
Frame rate : 29.970 fps
Color space : YUV
Chroma subsampling : 4:2:0
Bit depth : 8 bits
Scan type : Progressive
Compression mode : Lossy
Bits/(Pixel*Frame) : 0.279
Stream size : 1.27 GiB (93%)
Writing library : XviD 61

ID : 1

Format : MPEG Audio
Format version : Version 1
Format profile : Layer 3
Mode : Joint stereo
Mode extension : MS Stereo
Codec ID : 55
Codec ID/Hint : MP3
Duration : 1h 39mn
Bit rate mode : Constant
Bit rate : 128 Kbps
Channel(s) : 2 channels
Sampling rate : 44.1 KHz
Compression mode : Lossy
Stream size : 91.4 MiB (7%)
Alignment : Split accross interleaves
Interleave, duration : 33 ms (1.00 video frame)
Writing library : LAME3.98r

Set in a medieval village that is haunted by a werewolf, a young girl falls for an orphaned woodcutter, much to her family's displeasure.

VIDEO: ............. KiNOPARK
AUDIO: ............. KiNOPARK Thanx Mate

IMAGiNE bringing you another release..........
Red Riding Hood.....

Alright here we have yet another ntsc 'R5' so although it isnt PAL we still opted for the R5 tag as it had no english track Anyhow source was pretty good so not much was needed here.....
Made a script to crop rotate and so on.....

Audio is nice LiNE we synced filtered and muxed to our encode Reguardless of what you call it, its a damn fine release here

Enjoy Folks!





Related torrents

Torrent NameAddedSizeSeedLeechHealth
1 Year+ - in Movies1.4 GB00
1 Year+ - in Movies1.4 GB00
1 Year+ - in Movies1.4 GB00
1 Year+ - in Movies1.4 GB00
1 Year+ - in Movies709.56 MB00

Note :

Feel free to post any comments about this torrent, including links to Subtitle, samples, screenshots, or any other relevant information. Please Dont Download anything from Comments, And Dont Post Links to Streaming Sites like Fmovies, Xmovies8, 123Movies, GoMovies, CMovieshd, Solarmovie, Watchfree, Putlockers, GoStream, m4ufree etc.

Comments (0 Comments)

Please login or create a FREE account to post comments

Latest Searches

| passion hd keisha grey karissa kane mutual satisfaction new released 23 05 2016 | Napoleon Dynamite 2004 720p BRRip Dual Audio English Hindi AAC x264 BUZZccd WBRG | pornstarspunishment christie stevens nicki hunter three s humpany 05 07 2015 | pornstarslikeitbig 16 01 29 aletta ocean peeping the pornstar xxx 1080p mp4 ktr | Cedar Cove S01E02 HDTV x264 2HD | Riley Reid Throat Treatment | anoymous 2 0 | torrent dbdvdiso | Cory Chase Shower and Creampie for Mommy | Breaking dawn Rip |