Quick Browse
Movies
TV shows
Music
Games
Applications
Anime
Other
Facebook
Advertising

Friends
Torrent Download
Movie4u
1337x.to
Torrent Downloads




Verified torrent Red Riding Hood 2011 R5 LiNE XViD - IMAGiNE


    Seeders : 438      Leechers : 2120
Hash :CFA2EFED983B6712ACD8CF87ECCD70EE040366D0
Added :1 Year+ by memory100Verified torrent uploader in Movies
Size :1.4 GB
Stream :WATCH ONLINE @ Movie4u


Red Riding Hood 2011 R5 LiNE XViD - IMAGiNE
Free and Fast Download with Usenet 300GB+ free







Trackers List

Tracker NameLast CheckStatusSeedersLeechers




Torrent File Content (9 files)


Red Riding Hood 2011 R5 LiNE XViD - IMAGiNE
     Budget seedboxs.txt -
44 bytes

     NW RG.nfo -
12.96 KB

     Red Riding Hood 2011 R5 LiNE XViD - IMAGiNE SAMPLE.avi -
24.52 MB

     Red Riding Hood 2011 R5 LiNE XViD - IMAGiNE.NFO -
5.05 KB

     Red Riding Hood 2011 R5 LiNE XViD - IMAGiNE.avi -
1.37 GB

     Torrent downloaded from Demonoid.me.txt -
46 bytes

     dreamthe.net.txt -
91 bytes

     northernwarriors.net.txt -
135 bytes

     sceneunderground.org.txt -
77 bytes



Description



http://img217.imageshack.us/img217/4581/redhx.jpg

[code]
Red Riding Hood 2011 R5 LiNE XViD - IMAGiNE

Ripper ...........: IMAGiNE IMDB Rating.......: 4.9/10
Video Codec.......: XVID Release Date......: 25/05/11
Audio Codec.......: MP3 Theatre Date......: 11/03/11
Audio Bitrate.....: 128 Runtime.......: 1h 39mn
Subtitles.........: NIL Language..........: ENGLISH
Resolution......: 720 x 304 IMDb URL..........: http://www.imdb.com/title/tt1486185/

DETAILS:

Video
ID : 0
Format : MPEG-4 Visual
Format profile : Advanced [email protected]
Format settings, BVOP : 2
Format settings, QPel : No
Format settings, GMC : No warppoints
Format settings, Matrix : Default (MPEG)
Muxing mode : Packed bitstream
Codec ID : XVID
Codec ID/Hint : XviD
Duration : 1h 39mn
Bit rate : 1 827 Kbps
Width : 720 pixel
Height : 304 pixels
Display aspect ratio : 2.35:
Frame rate : 29.970 fps
Color space : YUV
Chroma subsampling : 4:2:0
Bit depth : 8 bits
Scan type : Progressive
Compression mode : Lossy
Bits/(Pixel*Frame) : 0.279
Stream size : 1.27 GiB (93%)
Writing library : XviD 61

Audio
ID : 1

Format : MPEG Audio
Format version : Version 1
Format profile : Layer 3
Mode : Joint stereo
Mode extension : MS Stereo
Codec ID : 55
Codec ID/Hint : MP3
Duration : 1h 39mn
Bit rate mode : Constant
Bit rate : 128 Kbps
Channel(s) : 2 channels
Sampling rate : 44.1 KHz
Compression mode : Lossy
Stream size : 91.4 MiB (7%)
Alignment : Split accross interleaves
Interleave, duration : 33 ms (1.00 video frame)
Writing library : LAME3.98r

Plot:
Set in a medieval village that is haunted by a werewolf, a young girl falls for an orphaned woodcutter, much to her family's displeasure.

SOURCES:
VIDEO: ............. KiNOPARK
AUDIO: ............. KiNOPARK Thanx Mate

NOTES:
IMAGiNE bringing you another release..........
Red Riding Hood.....

Alright here we have yet another ntsc 'R5' so although it isnt PAL we still opted for the R5 tag as it had no english track Anyhow source was pretty good so not much was needed here.....
Made a script to crop rotate and so on.....

Audio is nice LiNE we synced filtered and muxed to our encode Reguardless of what you call it, its a damn fine release here

Enjoy Folks!
[/code]
Screens:
http://img28.imageshack.us/img28/3049/80158630.jpg

http://img857.imageshack.us/img857/1329/62810392.jpg

http://img825.imageshack.us/img825/8110/95234520.jpg

http://img851.imageshack.us/img851/1171/98388568.jpg

http://img853.imageshack.us/img853/316/65692803.jpg

Related torrents

Torrent NameAddedSizeSeedLeechHealth
1 Year+ - in Movies1.4 GB00
1 Year+ - in Movies1.4 GB00
1 Year+ - in Movies1.4 GB102623
1 Year+ - in Movies1.4 GB00
1 Year+ - in Movies709.56 MB00

Comments (0 Comments)




Please login or create a FREE account to post comments

Latest Searches

| Evil Couple Prowls s 2016 Split | Ice Woman 2 Michael Zen Vivid 1993 All Sex | Seasick Silversun Pickups | X Art 16 12 09 Madi Meadows Let Me Tell You How It Feels 1080p MP4 KTR | I can tell boys | new pack mp3 2016 | freddie the dreamers i understand | I Am a Hero 2016 1080p BluRay | karla kushjillian janson | k michelle show |