Quick Browse
Movies
TV shows
Music
Games
Applications
Anime
Other
Facebook
Advertising

Friends
Torrent Download
Movie4u
1337x.to
Torrent Downloads




Red Riding Hood-2011-R5-XviD-AC3-BioniK


    Seeders : 50      Leechers : 398
Hash :B69F9FBCF315AE5CD092528DC6044CD0F581EF5E
Added :1 Year+ by bionik2011 in Movies
Size :833.72 MB
Stream :WATCH ONLINE @ Movie4u


Red Riding Hood-2011-R5-XviD-AC3-BioniK
Free and Fast Download with Usenet 300GB+ free







Trackers List

Tracker NameLast CheckStatusSeedersLeechers




Torrent File Content (2 files)


Red Riding Hood-2011-R5-XviD-AC3-BioniK
     Red Riding Hood-2011-R5-XviD-AC3-BioniK.mkv -
833.72 MB

     Torrent downloaded from Demonoid.me.txt -
46 bytes



Description



http://img90.imageshack.us/img90/7296/redridinghoodmovieposte.jpg


STORYLINE

Set in a medieval village that is haunted by a werewolf, a young girl falls for an orphaned woodcutter, much to her family's displeasure.

CAST

Gary Oldman ... Father Solomon
Billy Burke ... Cesaire
Shiloh Fernandez ...
Peter
Max Irons ... Henry Lazar
Virginia Madsen ... Suzette
Lukas Haas ... Father Auguste
Julie Christie ... Grandmother

INFO

File size : 834 MiB
Duration : 1h 39mn
Overall bit rate : 1 169 Kbps

Video
ID : 1
Format : xvid
Codec ID : xvid
Duration : 1h 39mn
Bit rate : 954 Kbps
Width : 640 pixels
Height : 272 pixels
Display aspect ratio : 2.35:1
Frame rate : 29.970 fps
Bits/(Pixel*Frame) : 0.183
Stream size : 680 MiB (82%)

Audio
ID : 2
Format : AC-3
Format/Info : Audio Coding 3
Mode extension : CM (complete main)
Muxing mode : Header stripping
Codec ID : A_AC3
Duration : 1h 39mn
Bit rate mode : Constant
Bit rate : 192 Kbps
Channel(s) : 2 channels
Channel positions : Front: L R
Sampling rate : 44.1 KHz
Bit depth : 16 bits
Compression mode : Lossy
Stream size : 137 MiB (16%)

SCREENS
http://img405.imageshack.us/img405/3974/vlcsnap2011052418h32m49.png

http://img3.imageshack.us/img3/4868/vlcsnap2011052418h33m09.png

http://img228.imageshack.us/img228/3215/vlcsnap2011052418h34m09.png

http://img862.imageshack.us/img862/6783/vlcsnap2011052418h35m13.png


Related torrents

Torrent NameAddedSizeSeedLeechHealth
1 Year+ - in Movies843.6 MB09
1 Year+ - in Movies851.95 MB16
1 Year+ - in Movies1.02 GB00
1 Year+ - in Movies1.54 GB00
1 Year+ - in Movies1.39 GB23385

Comments (0 Comments)




Please login or create a FREE account to post comments

Latest Searches

| 8 75 | My n My n My n | the grand tour fum ettv | Arrow season 1 to | claudia 4 | megadeth risk | Abluka | Finding Dory greek | The New York Times Best Sellers Fiction Non Fiction March 06 | cento claudia 4 |