Quick Browse
Movies
TV shows
Music
Games
Applications
Anime
Other
Facebook
Advertising

Friends
Torrent Download
Movie4u
1337x.to
Torrent Downloads




Verified torrent Red Tails 2012 CAM READNFO XViD AC3-26K


    Seeders : 545      Leechers : 164
Hash :978856496744913662BA831F4BF0E0FFD24B385A
Added :1 Year+ by memory100Verified torrent uploader in Movies
Size :1.56 GB
Stream :WATCH ONLINE @ Movie4u


Red Tails 2012 CAM READNFO XViD AC3-26K
Free and Fast Download with Usenet 300GB+ free







Trackers List

Tracker NameLast CheckStatusSeedersLeechers




Torrent File Content (7 files)


Red Tails 2012 CAM READNFO XViD AC3-26K
     HDSceneRG.txt -
115 bytes

     Red Tails 2012 CAM READNFO XViD AC3-26K.avi -
1.52 GB

     Red Tails 2012 CAM READNFO XViD AC3-26K.nfo -
3.37 KB

     Torrent downloaded from Demonoid.me.txt -
46 bytes

     att-networks.com.txt -
39 bytes

     sample.avi -
37.36 MB

     sceneunderground.org.txt -
77 bytes



Description



http://img9.imageshack.us/img9/3646/redtails.jpg

[code]
Red Tails 2012 CAM READNFO XViD AC3-26K

Imdb:
http://www.imdb.com/title/tt0485985/

Plot:
A crew of African American pilots in the Tuskegee training program, having faced segregation while

kept mostly on the ground during World War II, are called into duty under the guidance of Col. A.J.

Bullard.

Sources:
VIDEO - Hos DVDR iso
AUDIO - Hos DVDR iso

Notes:
READNFO the cam had loadz of movement so cropped out the black borders..
so take it or leave it.. not bad for first cam!

Greetz:
Xtreme

Encode|FYA|ILLUMANTI|CM8|RX|VISION|HDSCENE|NIGHTMAREZ|xTriLL|DTRG|CRYS|REMIXHD|BIDA|RX|REFILL|INSPiRAL

|SIC|ZOMBIESZ|HOPE|Anonymous|GooN
To all the people who have helped me :P you know who you are

Anything to offer email us @: [email protected]

Video
ID : 0
Format : MPEG-4 Visual
Format profile : Advanced [email protected]
Format settings, BVOP : 2
Format settings, QPel : No
Format settings, GMC : No warppoints
Format settings, Matrix : Default (H.263)
Codec ID : XVID
Codec ID/Hint : XviD
Duration : 1h 57mn
Bit rate : 1 649 Kbps
Width : 720 pixels
Height : 320 pixels
Display aspect ratio : 2.25:1
Frame rate : 25.000 fps
Color space : YUV
Chroma subsampling : 4:2:0
Bit depth : 8 bits
Scan type : Progressive
Compression mode : Lossy
Bits/(Pixel*Frame) : 0.286
Stream size : 1.36 GiB (89%)
Writing library : XviD 63

Audio
ID : 1
Format : AC-3
Format/Info : Audio Coding 3
Mode extension : CM (complete main)
Codec ID : 2000
Duration : 1h 57mn
Bit rate mode : Constant
Bit rate : 192 Kbps
Channel(s) : 2 channels
Channel positions : Front: L R
Sampling rate : 48.0 KHz
Bit depth : 16 bits
Compression mode : Lossy
Stream size : 162 MiB (10%)
Alignment : Aligned on interleaves
Interleave, duration : 32 ms (0.80 video frame)

[/code]
Screens:
http://img838.imageshack.us/img838/7152/vlcsnap2012020220h52m21.png

http://img26.imageshack.us/img26/6612/vlcsnap2012020220h52m30.png

http://img29.imageshack.us/img29/1402/vlcsnap2012020220h52m37.png

http://img16.imageshack.us/img16/4647/vlcsnap2012020220h52m43.png

http://img194.imageshack.us/img194/9449/vlcsnap2012020220h52m48.png


http://img851.imageshack.us/img851/5503/26ks.jpg

Thank you smallz for banner!

Related torrents

Torrent NameAddedSizeSeedLeechHealth
7 months ago - in Movies1.56 GB00
1 Year+ - in Movies1.39 GB00
1 Year+ - in Movies1.39 GB06
1 Year+ - in Movies1.36 GB019
1 Year+ - in Movies1.36 GB00

Comments (0 Comments)




Please login or create a FREE account to post comments

Latest Searches

| like dating | New found glory Im the one | revolution s01e12 hdtv | Blonde likes cock between her tits | Men in Black 3 hin | kid Im | Bad Hurt x264 | Unsteady X AMBASSADORS | Air Bud 1997 hindi | vlc 2 0 6 win32 |