Quick Browse
TV shows

Latest Articles

Torrent Download
Free Movies
Torrent Downloads

Verified torrent Remember Me 2010 DVDRip Xvid AC3-*THC*

    Seeders : 16      Leechers : 9

Hash :B61D3BC448B70FA8FD38D52463C7C52A829143F4
Added :1 Year+ by striker123Verified torrent uploader in Movies
Size :1.98 GB
Stream :Watch Online Full Movie @ Movie4u
Share :

Remember Me 2010 DVDRip Xvid AC3-*THC*
Download Direct And Anonymously

Warning! Do not Download Torrents Without a VPN!
Your IP Address is .   And Location is
Your Internet Provider and Government can track your torrent Activity!  Hide your IP ADDRESS with a VPN!
We Strongly Recommend Using CyberGhost VPN to Anonymize your Torrenting.

Note :

Please Update (Trackers Info) Before Downloading Torrents to See Updated Seeders And Leechers for Batter Download Speed.

Trackers List

Tracker NameLast CheckStatusSeedersLeechers

Torrent File Content (5 files)

Remember Me DVDRip Xvid AC3-THC
          VTS_01_1 T81 3_2ch 448Kbps DELAY 0ms spanish.ac3 -
359.91 MB

          VTS_01_0 english spanish.sub -
39.48 MB

          VTS_01_0 english spanish.idx -
450.89 KB

          Remember Me DVDRip Xvid AC3 Sample-THC.avi -
58.96 MB

     Remember Me DVDRip Xvid AC3-THC.avi -
1.53 GB





Format : AVI
Format/Info : Audio Video Interleave
Format profile : OpenDML
File size : 1.53 GiB
Duration : 1h 52mn
Overall bit rate : 1 953 Kbps
Writing application : AVI-Mux GUI, Feb 16 201019:42:50

ID : 0
Format : MPEG-4 Visual
Format profile : Advanced [email protected]
Format settings, BVOP : Yes
Format settings, QPel : No
Format settings, GMC : No warppoints
Format settings, Matrix : Default (MPEG)
Codec ID : XVID
Codec ID/Hint : XviD
Duration : 1h 52mn
Bit rate : 1 500 Kbps
Width : 720 pixels
Height : 400 pixels
Display aspect ratio : 16:9
Frame rate : 23.976 fps
Color space : YUV
Chroma subsampling : 4:2:0
Bit depth : 8 bits
Scan type : Progressive
Bits/(Pixel*Frame) : 0.217
Stream size : 1.18 GiB (77%)
Writing library : XviD 1.2.1 (UTC 2008-12-04)

ID : 1
Format : AC-3
Format/Info : Audio Coding 3
Mode extension : CM (complete main)
Codec ID : 2000
Duration : 1h 52mn
Bit rate mode : Constant
Bit rate : 448 Kbps
Channel(s) : 6 channels
Channel positions : Front: L C R, Side: L R, LFE
Sampling rate : 48.0 KHz
Bit depth : 16 bits
Stream size : 360 MiB (23%)
Alignment : Aligned on interleaves
Interleave, duration : 64 ms (1.53 video frames)
Interleave, preload duration : 192 ms
Title : VTS_01_1 T80 3_2ch 448Kbps DELAY 0ms

Actors: Robert Pattinson, Emilie de Ravin, Pierce Brosnan, Chris Cooper, Ruby Jerins
Directors: Allen Coulter
Language: English, Spanish
Subtitle: English, Spanish
Rated: PG-13 (Parental Guidance Suggested)
Studio: Summit Entertainment
DVD Release Date: June 22, 2010
Run Time: 113 minutes
Sample Included: Yes



A romantic drama centered on two new lovers: Tyler, whose parents have split in the wake of his brother's suicide, and Ally, who lives each day to the fullest since witnessing her mother's murder.






Related torrents

Torrent NameAddedSizeSeedLeechHealth
1 Year+ - in Movies1.37 GB184
1 Year+ - in Movies1.83 GB146
1 Year+ - in Movies1.44 GB21
1 Year+ - in Movies1.44 GB712
4 months ago - in Other80.06 KB00

Note :

Feel free to post any comments about this torrent, including links to Subtitle, samples, screenshots, or any other relevant information. Please Dont Download anything from Comments, And Dont Post Links to Streaming Sites like Fmovies, Xmovies8, 123Movies, GoMovies, CMovieshd, Solarmovie, Watchfree, Putlockers, GoStream, m4ufree etc.

Comments (0 Comments)

Please login or create a FREE account to post comments

Latest Searches

| redman method man blackout | C DC back in black | met art l | Linda M | ichido | anno 1404 a | Double BBC For Me | batman terror of | Noble Dead Saga | KarupsPC 16 08 05 Lana Ray Solo 5 720p MP4 KTR |