Quick Browse
Movies
TV shows
Music
Games
Applications
Anime
Other
Facebook
Advertising

Friends
Torrent Download
Movie4u
1337x.to
Torrent Downloads




Verified torrent Retreat 2011 DvDRiP XviD - VISUALiSE


    Seeders : 0      Leechers : 0
Hash :93ED36E9ED6C27EF08C40DACCD749AB96C5CC77E
Added :1 Year+ by memory100Verified torrent uploader in Movies
Size :1012.12 MB
Stream :WATCH ONLINE @ Movie4u


Retreat 2011 DvDRiP XviD - VISUALiSE
Free and Fast Download with Usenet 300GB+ free







Trackers List

Tracker NameLast CheckStatusSeedersLeechers




Torrent File Content (9 files)


Retreat 2011 DvDRiP XviD - VISUALiSE
     1.png -
315.59 KB

     2.png -
222.46 KB

     3.png -
365.41 KB

     4.png -
237.31 KB

     HDSceneRG.txt -
115 bytes

     Retreat 2011 DvDRiP XviD - VISUALiSE.avi -
1011 MB

     Torrent downloaded from Suprnova.me.txt -
42 bytes

     att-networks.com.txt -
39 bytes

     sceneunderground.org.txt -
77 bytes



Description



http://img594.imageshack.us/img594/7481/retreat.jpg

[code]
iNFO

Title: Retreat 2011 DvDRiP XviD - VISUALiSE
Format: XViD
Language: English
Subtitles: No

iMDB: http://www.imdb.com/title/tt1410051/

Plot:
Kate and Martin escape from personal tragedy to an Island Retreat.
Cut off from the outside world, their attempts to recover are shattered
when a Man is washed ashore, with news of airborne killer disease that
is sweeping through Europe.

Sources:
Video: - thanks
Audio: - thanks

Release Notes:
Straight forward rip on this not much special so hope you enjoy.

Info:

Video
ID : 0
Format : MPEG-4 Visual
Format profile : Advanced [email protected]
Format settings, BVOP : 2
Format settings, QPel : No
Format settings, GMC : No warppoints
Format settings, Matrix : Default (H.263)
Codec ID : XVID
Codec ID/Hint : XviD
Duration : 1h 26mn
Bit rate : 1 498 Kbps
Width : 718 pixels
Height : 304 pixels
Display aspect ratio : 2.35:1
Frame rate : 23.976 fps
Color space : YUV
Chroma subsampling : 4:2:0
Bit depth : 8 bits
Scan type : Progressive
Compression mode : Lossy
Bits/(Pixel*Frame) : 0.286
Stream size : 924 MiB (91%)
Writing library : XviD 63

Audio
ID : 1
Format : MPEG Audio
Format version : Version 1
Format profile : Layer 3
Codec ID : 55
Codec ID/Hint : MP3
Duration : 1h 26mn
Bit rate mode : Constant
Bit rate : 128 Kbps
Channel(s) : 2 channels
Sampling rate : 48.0 KHz
Compression mode : Lossy
Stream size : 79.0 MiB (8%)
Alignment : Split accross interleaves
Interleave, duration : 24 ms (0.58 video frame)
[/code]
Screens:
http://img27.imageshack.us/img27/4755/74520977.png

http://img845.imageshack.us/img845/898/60086807.png

http://img690.imageshack.us/img690/5797/31718246.png

http://img5.imageshack.us/img5/2097/97278099.png


Related torrents

Torrent NameAddedSizeSeedLeechHealth
1 Year+ - in Movies1012.12 MB00
1 Year+ - in Movies1012.12 MB00
1 Year+ - in Movies1.1 GB00
1 Year+ - in Movies823.87 MB1458
1 Year+ - in Movies823.88 MB017

Comments (0 Comments)




Please login or create a FREE account to post comments

Latest Searches

| it watched | The Flash | 3 percent full | Teen Wolf | dual soft | a family affair classic | C Locker Pro Widget Locker v8 1 9 Apk | Amelies Collectors | Clips4Sale Alyssa Reece Pull Your Foreskin Back For Mommy Incest Roleplay | NCH Switch Sound File Converter Plus Key |