Quick Browse
Movies
TV shows
Music
Games
Applications
Anime
Other
Facebook
Advertising

Friends
Torrent Download
Movie4u
1337x.to
Torrent Downloads




Verified torrent Rhapsody of Fire - Symphony Of Enchanted Lands [Flac] Symphonic Metal [TNT Village]


    Seeders : 6      Leechers : 2

Trackers List

Tracker NameLast CheckStatusSeedersLeechers




Torrent File Content (29 files)


Rhapsody - 1998 - Symphony Of Enchanted Lands
     01 - Epicus Furor.flac -
8.56 MB

     02 - Emerald Sword.flac -
34.38 MB

     03 - Wisdom Of The Kings.flac -
33.62 MB

     04 - Heroes Of The Lost Valley.flac -
11.17 MB

     05 - Eternal Glory.flac -
53.39 MB

     06 - Beyond The Gates Of Infinity.flac -
51.63 MB

     07 - Wings Of Destiny.flac -
26.67 MB

     08 - The Dark Tower Of Abyss.flac -
47.8 MB

     09 - Riding The Winds Of Eternity.flac -
30.46 MB

     10 - Symphony Of Enchanted Lands.flac -
85.82 MB

    art
          back.jpg -
689.39 KB

          Booklet 01.jpg -
1.25 MB

          Booklet 02.jpg -
1.51 MB

          Booklet 03.jpg -
1.47 MB

          Booklet 04.jpg -
1.45 MB

          Booklet 05.jpg -
1.37 MB

          Booklet 06.jpg -
1.23 MB

          Booklet 07.jpg -
1.37 MB

          Booklet 08.jpg -
1.07 MB

          Booklet 09.jpg -
1.18 MB

          Booklet 10.jpg -
1.21 MB

          Booklet.jpg -
1.22 MB

          cd.jpg -
576.06 KB

          front.jpg -
704.45 KB

          Inlay.jpg -
451.42 KB

          Senza titolo 11.jpg -
1.1 MB

     front.jpg -
129.1 KB

     Rhapsody - Symphony Of Enchanted Lands.log -
4.31 KB

     Rhapsody Of Fire - Symphony Of Enchanted Lands.cue -
1.95 KB



Description



http://a.imageshack.us/img217/4812/copo.jpg


http://img149.imageshack.us/img149/5117/frontlq.jpg


http://a.imageshack.us/img820/5247/30376060.jpg


Artista: Rhapsody of Fire
Tipo album: Studio
Pubblicazione: 1998
Durata: 55 min : 48 s
Dischi: 1
Tracce: 10
Genere: Symphonic metal, Film Score Metal
Etichetta LMP
Formato: Flac
Fonte: Cd Originale


http://a.imageshack.us/img705/1737/trackg.jpg


Epicus Furor - 1:14
Emerald Sword - 4:21
Wisdom of the Kings - 4:29
Heroes of the Lost Valley - 2:04
Eternal Glory - 7:29
Beyond the Gates of Infinity - 7:24
Wings of Destiny - 4:28
The Dark Tower of Abyss - 6:47
Riding the Winds of Eternity - 4:16
Symphony of Enchanted Lands - 13:17


http://a.imageshack.us/img695/2946/datieac.jpg


Exact Audio Copy V0.99 prebeta 5 from 4. May 2009

EAC extraction logfile from 18. November 2010, 16:56

Rhapsody / Symphony Of Enchanted Lands

Used drive : _NEC DVD_RW ND-4551A Adapter: 2 ID: 2

Read mode : Secure
Utilize accurate stream : Yes
Defeat audio cache : Yes
Make use of C2 pointers : No

Read offset correction : 48
Overread into Lead-In and Lead-Out : No
Fill up missing offset samples with silence : Yes
Delete leading and trailing silent blocks : No
Null samples used in CRC calculations : Yes
Used interface : Native Win32 interface for Win NT & 2000
Gap handling : Appended to previous track

Used output format : User Defined Encoder
Selected bitrate : 768 kBit/s
Quality : High
Add ID3 tag : No
Command line compressor : C:\Programmi\Exact Audio Copy\FLAC\FLAC.EXE
Additional command line options : -8 -V -T "artist=%a" -T "title=%t" -T "album=%g" -T "date=%y" -T "tracknumber=%n" -T "genre=%m" %s


TOC of the extracted CD

Track | Start | Length | Start sector | End sector
---------------------------------------------------------
1 | 0:00.00 | 1:14.38 | 0 | 5587
2 | 1:14.38 | 4:21.03 | 5588 | 25165
3 | 5:35.41 | 4:28.52 | 25166 | 45317
4 | 10:04.18 | 2:04.37 | 45318 | 54654
5 | 12:08.55 | 7:29.08 | 54655 | 88337
6 | 19:37.63 | 7:23.18 | 88338 | 121580
7 | 27:01.06 | 4:28.28 | 121581 | 141708
8 | 31:29.34 | 6:46.61 | 141709 | 172219
9 | 38:16.20 | 4:13.09 | 172220 | 191203
10 | 42:29.29 | 13:16.54 | 191204 | 250957


Track 1

Filename G:\Musica\Epicus Furor.wav

Pre-gap length 0:00:02.00

Peak level 98.8 %
Track quality 100.0 %
Test CRC 24509320
Copy CRC 24509320
Accurately ripped (confidence 28) [E5985026]
Copy OK

Track 2

Filename G:\Musica\Emerald Sword.wav

Peak level 98.8 %
Track quality 100.0 %
Test CRC BFD8005C
Copy CRC BFD8005C
Accurately ripped (confidence 28) [9D8D323E]
Copy OK

Track 3

Filename G:\Musica\Wisdom Of The Kings.wav

Peak level 98.8 %
Track quality 100.0 %
Test CRC 3E86EE97
Copy CRC 3E86EE97
Accurately ripped (confidence 30) [22097A7B]
Copy OK

Track 4

Filename G:\Musica\Heroes Of The Lost Valley.wav

Pre-gap length 0:00:00.15

Peak level 81.9 %
Track quality 100.0 %
Test CRC B0436BC5
Copy CRC B0436BC5
Accurately ripped (confidence 29) [3EF0260A]
Copy OK

Track 5

Filename G:\Musica\Eternal Glory.wav

Peak level 98.8 %
Track quality 100.0 %
Test CRC E6026584
Copy CRC E6026584
Accurately ripped (confidence 29) [65BADF34]
Copy OK

Track 6

Filename G:\Musica\Beyond The Gates Of Infinity.wav

Peak level 100.0 %
Track quality 100.0 %
Test CRC 3AB3A18C
Copy CRC 3AB3A18C
Accurately ripped (confidence 30) [00F1FE72]
Copy OK

Track 7

Filename G:\Musica\Wings Of Destiny.wav

Peak level 98.8 %
Track quality 100.0 %
Test CRC FF069F9B
Copy CRC FF069F9B
Accurately ripped (confidence 29) [B0FB33F6]
Copy OK

Track 8

Filename G:\Musica\The Dark Tower Of Abyss.wav

Peak level 98.8 %
Track quality 100.0 %
Test CRC A9B76BD1
Copy CRC A9B76BD1
Accurately ripped (confidence 29) [1E63ECDA]
Copy OK

Track 9

Filename G:\Musica\Riding The Winds Of Eternity.wav

Peak level 98.8 %
Track quality 100.0 %
Test CRC BEA70859
Copy CRC BEA70859
Accurately ripped (confidence 30) [926DD0B0]
Copy OK

Track 10

Filename G:\Musica\Symphony Of Enchanted Lands.wav

Peak level 98.8 %
Track quality 100.0 %
Test CRC 85AA2F15
Copy CRC 85AA2F15
Accurately ripped (confidence 27) [BE06C05A]
Copy OK


All tracks accurately ripped

No errors occurred

End of status report

http://a.imageshack.us/img25/966/bandgv.jpg


http://img121.imageshack.us/img121/7665/senzatitolo11q.jpg


Italiano

I Rhapsody of Fire sono un gruppo musicale power metal italiano, precedentemente conosciuto come Rhapsody, e come Thundercross agli esordi. Fortemente influenzato dalla musica classica barocca, dall'epic metal, dal folk, dal power metal e dal metal sinfonico. Di base la loro musica è ispirata principalmente dalle colonne sonore di film Hollywoodiani come Conan il barbaro e Il Signore degli Anelli, e dalle tematiche fantasy. Per questo motivo il gruppo decise in origine di definire la propria musica come Hollywood metal, e successivamente Film-score metal

English

Rhapsody of Fire (formerly known as Thundercross and, previously, Rhapsody) is an Italian symphonic power metal band led by Luca Turilli and Alex Staropoli. Since forming in 1993, the band has released eight studio albums, one live album, two EPs, and a live DVD.

http://a.imageshack.us/img405/4800/recq.jpg


Italiano

Emerald Sword Saga, Capitolo II: Attraversate valli e rovine, il guerriero è in cerca della terza chiave, aperti i cancelli raggiunge l’altare, da dove risveglierà i draghi… è giunto in una caverna oscura, guidato dal fato, ed osserva un mondo irreale. Raggiunta la fine di quel luogo arcano, incontra due demoni appena destati, ma i draghi lo aiuteranno a sconfiggerli con il loro potere. Altri guerrieri sono caduti in queste lande, la gloria porterà alle loro anime la vittoria: i re di Algalord attendono il suo arrivo con la spada… queste lande sono oscure e demoniache, un percorso terribile: circondato da mostri, condannato ad attraversare i cancelli dell’infinito. Il guerriero si perde in un sogno speranzoso, richiama ancora al cuore il suo cielo, per custodire la sua anima. In groppa a Tharos, il grande drago, ritorna il guerriero sul suo dorso, e cavalca le ombre… pare l’inferno ora ai piedi della torre dell’abisso, trai morti viventi, ora cavalca i venti dell’eternità. Chiede la forza della tempesta al suo fianco, combatterà e raggiungerà la sua meta grazie al drago. Ma Tharos fu sconfitto e si prepara al suo ultimo volo verso la morte. Il guerriero dona i suoi ringraziamenti alle magiche terre incantate dei draghi, e raccoglie fiero la emerald sword, ora si prepara ad affrontare pericoli ancor più terribili, ma con la leggenda nelle sue mani, potrà annientare l’oscuro regno e il re del caos…

English

Symphony of Enchanted Lands is an album released by Rhapsody in 1998. It is the second album of the Emerald Sword Saga. All songs, vocal lines and classical interludes composed by Luca Turilli and Alex Staropoli. All lyrics and emerald sword saga written by Luca Turilli. Orchestral arrangements by Alex Staropoli

Related torrents

Torrent NameAddedSizeSeedLeechHealth
Verified torrent
1 Year+ - in Music389.28 MB53
1 Year+ - in Music127.7 MB00
1 Year+ - in Music128.97 MB02
1 Year+ - in Other167.22 MB00
1 Year+ - in Music13 MB00

Comments (0 Comments)




Please login or create a FREE account to post comments

Latest Searches

| Ninja turtles mutants | EvilAngel Adria Rae | find hell | DirtyMasseur Keisha Grey Slutty Sitter XXX x264 | X Art Blake Eden Marley Brinx Girl Time | I Magnifici Sette 2016 iTALiAN MD Bluray | slim jesus idgaf beast coast | Riley Nixon starlets | Designated Survivor S01E09 dimension | babysitter anal xxx |