Quick Browse
Movies
TV shows
Music
Games
Applications
Anime
Other

Donate and Support

Friends
Torrents.me
Torrent Download
Free Movies
1337x
RARBG
Torrent Downloads

Verified torrent Rich Girl ft Fabolous and Rick Ross - Swagger Right [KingPinVideos]


    Seeders : 34      Leechers : 1
Hash :B3163967774D2CD559F2976B95BFADB094FED48F
Added :1 Year+ by KingPinVerified torrent uploader in Music - Music Videos
Size :94.26 MB
Stream :Watch Full Movies Online @ Movie4u
Share :








Warning! Do not Download Torrents Without a VPN!
Your IP Address is .   And Location is
Your Internet Provider and Government can track your torrent Activity!  Hide your IP ADDRESS with a VPN!
We Strongly Recommend Using SpyOFF Torrent VPN to Anonymize your Torrenting. It's FREE For 15 Days!

Note :

Please Update (Trackers Info) Before Downloading Torrents to See Updated Seeders And Leechers for Batter Download Speed.

Trackers List

Tracker NameLast CheckStatusSeedersLeechers




Torrent File Content (5 files)


Rich Girl ft Fabolous and Rick Ross - Swagger Right [KingPinVideos]
     Rich Girl ft Fabolous and Rick Ross - Swagger Right [KingPinVideos].mpg -
94.26 MB

     Rich Girl ft Fabolous and Rick Ross - Swagger Right [KingPinVideos].nfo -
1.93 KB

     Rich Girl ft Fabolous and Rick Ross - Swagger Right [KingPinVideos].txt -
1.66 KB

     Torrent downloaded from Demonoid.com.txt -
47 bytes

     Torrent Downloaded from Limetorrents.com.txt -
46 bytes



Description



http://img810.imageshack.us/img810/9117/richgirlswag.png


http://img545.imageshack.us/img545/9391/richgirlswag2.png


[code]General
Complete name : Rich Girl ft Fabolous and Rick Ross - Swagger Right [KingPinVideos].mpg
Format : MPEG-PS
File size : 94.3 MiB
Duration : 4mn 36s
Overall bit rate : 2 856 Kbps
Writing library : encoded by TMPGEnc 4.0 XPress Version. 4.7.4.299

Video
ID : 224 (0xE0)
Format : MPEG Video
Format version : Version 1
Format settings, BVOP : Yes
Format settings, Matrix : Default
Duration : 4mn 36s
Bit rate mode : Constant
Bit rate : 2 614 Kbps
Nominal bit rate : 2 700 Kbps
Width : 384 pixels
Height : 208 pixels
Display aspect ratio : 16:9
Frame rate : 29.970 fps
Resolution : 8 bits
Scan type : Progressive
Bits/(Pixel*Frame) : 1.092
Stream size : 86.3 MiB (92%)
Writing library : TMPGEnc XPress 4.7.4.299

Audio
ID : 192 (0xC0)
Format : MPEG Audio
Format version : Version 1
Format profile : Layer 2
Duration : 4mn 36s
Bit rate mode : Constant
Bit rate : 128 Kbps
Channel(s) : 2 channels
Sampling rate : 48.0 KHz
Stream size : 4.22 MiB (4%)[/code]

Related torrents

Torrent NameAddedSizeSeedLeechHealth
1 Year+ - in Other3.87 MB00
1 Year+ - in Music4.3 MB81
1 Year+ - in Music3.25 MB00
1 Year+ - in Music13.12 MB56
1 Year+ - in Music84.28 MB11

Comments (0 Comments)




Please login or create a FREE account to post comments

Latest Searches

| bmw high road map | Jonas Blue Perfect Strangers f | FAST AND SEXY MAGAZINE | royal notorious b i g | Fear and Loathing in Las Vegas 1998 1080p x265 10bit Joy | kelli interracial | Abella Danger Dana Vespoli | titanic bluray TeaM | boondocks season 3 episode 9 | noreaga melvin |