Quick Browse
Movies
TV shows
Music
Games
Applications
Anime
Other
Facebook
Advertising

Friends
Torrent Download
Movie4u
1337x.to
Torrent Downloads




Verified torrent Rich Girl ft Fabolous and Rick Ross - Swagger Right [KingPinVideos]


    Seeders : 34      Leechers : 1

Trackers List

Tracker NameLast CheckStatusSeedersLeechers




Torrent File Content (5 files)


Rich Girl ft Fabolous and Rick Ross - Swagger Right [KingPinVideos]
     Rich Girl ft Fabolous and Rick Ross - Swagger Right [KingPinVideos].mpg -
94.26 MB

     Rich Girl ft Fabolous and Rick Ross - Swagger Right [KingPinVideos].nfo -
1.93 KB

     Rich Girl ft Fabolous and Rick Ross - Swagger Right [KingPinVideos].txt -
1.66 KB

     Torrent downloaded from Demonoid.com.txt -
47 bytes

     Torrent Downloaded from Limetorrents.com.txt -
46 bytes



Description



http://img810.imageshack.us/img810/9117/richgirlswag.png


http://img545.imageshack.us/img545/9391/richgirlswag2.png


[code]General
Complete name : Rich Girl ft Fabolous and Rick Ross - Swagger Right [KingPinVideos].mpg
Format : MPEG-PS
File size : 94.3 MiB
Duration : 4mn 36s
Overall bit rate : 2 856 Kbps
Writing library : encoded by TMPGEnc 4.0 XPress Version. 4.7.4.299

Video
ID : 224 (0xE0)
Format : MPEG Video
Format version : Version 1
Format settings, BVOP : Yes
Format settings, Matrix : Default
Duration : 4mn 36s
Bit rate mode : Constant
Bit rate : 2 614 Kbps
Nominal bit rate : 2 700 Kbps
Width : 384 pixels
Height : 208 pixels
Display aspect ratio : 16:9
Frame rate : 29.970 fps
Resolution : 8 bits
Scan type : Progressive
Bits/(Pixel*Frame) : 1.092
Stream size : 86.3 MiB (92%)
Writing library : TMPGEnc XPress 4.7.4.299

Audio
ID : 192 (0xC0)
Format : MPEG Audio
Format version : Version 1
Format profile : Layer 2
Duration : 4mn 36s
Bit rate mode : Constant
Bit rate : 128 Kbps
Channel(s) : 2 channels
Sampling rate : 48.0 KHz
Stream size : 4.22 MiB (4%)[/code]

Related torrents

Torrent NameAddedSizeSeedLeechHealth
5 months ago - in Other3.87 MB00
1 Year+ - in Music4.3 MB81
1 Year+ - in Music3.25 MB00
1 Year+ - in Music13.12 MB56
1 Year+ - in Music84.28 MB11

Comments (0 Comments)




Please login or create a FREE account to post comments

Latest Searches

| don omar xavi | Met art Amelia C XXX iMAGESET | x art double oh heaven the red fox kim 1080p mp4 | chris brown my love | while o was sleeping | CFA level I 2016 | Passion Bailey Brooke | Arctic Monkeys At The Apollo 2009 MTD torrent | dej loaf | why now is the time to |