Quick Browse
Movies
TV shows
Music
Games
Applications
Anime
Other
Facebook
Advertising

Friends
Torrent Download
Movie4u
1337x.to
Torrent Downloads




Verified torrent Rick Ross - I'm Not A Star [KingPinVideos]


    Seeders : 40      Leechers : 1
Hash :37814345F6BBA670E0224B582FDFEA3124A92959
Added :1 Year+ by KingPinVerified torrent uploader in Music - Music Videos
Size :63.14 MB
Stream :WATCH ONLINE @ Movie4u


Rick Ross - I'm Not A Star [KingPinVideos]
Free and Fast Download with Usenet 300GB+ free







Trackers List

Tracker NameLast CheckStatusSeedersLeechers




Torrent File Content (5 files)


Rick Ross - Im Not A Star [KingPinVideos]
     Rick Ross - Im Not A Star [KingPinVideos].mpg -
63.14 MB

     Rick Ross - Im Not A Star [KingPinVideos].nfo -
1.92 KB

     Rick Ross - Im Not A Star [KingPinVideos].txt -
1.63 KB

     Torrent downloaded from Demonoid.com.txt -
47 bytes

     Torrent Downloaded from Limetorrents.com.txt -
46 bytes



Description



http://img832.imageshack.us/img832/9382/rickrossnotastar2.png


http://img829.imageshack.us/img829/6640/rickrossnotastar.png


[code]General
Complete name : Rick Ross - Im Not A Star [KingPinVideos].mpg
Format : MPEG-PS
File size : 63.1 MiB
Duration : 3mn 5s
Overall bit rate : 2 856 Kbps
Writing library : encoded by TMPGEnc 4.0 XPress Version. 4.7.4.299

Video
ID : 224 (0xE0)
Format : MPEG Video
Format version : Version 1
Format settings, BVOP : Yes
Format settings, Matrix : Default
Duration : 3mn 5s
Bit rate mode : Constant
Bit rate : 2 615 Kbps
Nominal bit rate : 2 700 Kbps
Width : 384 pixels
Height : 208 pixels
Display aspect ratio : 16:9
Frame rate : 29.970 fps
Resolution : 8 bits
Scan type : Progressive
Bits/(Pixel*Frame) : 1.092
Stream size : 57.8 MiB (92%)
Writing library : TMPGEnc XPress 4.7.4.299

Audio
ID : 192 (0xC0)
Format : MPEG Audio
Format version : Version 1
Format profile : Layer 2
Duration : 3mn 5s
Bit rate mode : Constant
Bit rate : 128 Kbps
Channel(s) : 2 channels
Sampling rate : 48.0 KHz
Stream size : 2.83 MiB (4%)[/code]

Related torrents

Torrent NameAddedSizeSeedLeechHealth
Verified torrent
1 Year+ - in Music94.26 MB341
1 Comments
Verified torrent
1 Year+ - in Music127.15 MB9316
1 Year+ - in Music6.44 MB20
1 Year+ - in Music105.61 MB191
1 Year+ - in Music182.96 MB12

Comments (0 Comments)




Please login or create a FREE account to post comments

Latest Searches

| Dolly Parton Platinum Blonde | B B King Go Home | no stone rolling | scrvp apato penta | dark paradise lana | p hub | Anjos da noite A Rebeliao | x company s02e10 august 19th 720p web dl dd5 1 h264 queens rartv | 4 odd years | Ragga Bomb Skrillex Zomboy Remix skrillex |