Quick Browse
Movies
TV shows
Music
Games
Applications
Anime
Other
Facebook
Advertising

Friends
Torrent Download
Movie4u
1337x.to
Torrent Downloads




Verified torrent Rick Ross ft Chrisette Michele and Drake - Aston Martin Music [KingPinVideos]


    Seeders : 93      Leechers : 16

Trackers List

Tracker NameLast CheckStatusSeedersLeechers




Torrent File Content (5 files)


Rick Ross ft Chrisette Michele and Drake - Aston Martin Music [KingPinVideos]
     Rick Ross ft Chrisette Michele and Drake - Aston Martin Music [KingPinVideos].mpg -
127.15 MB

     Rick Ross ft Chrisette Michele and Drake - Aston Martin Music [KingPinVideos].nfo -
1.97 KB

     Rick Ross ft Chrisette Michele and Drake - Aston Martin Music [KingPinVideos].txt -
1.66 KB

     Torrent downloaded from Demonoid.com.txt -
47 bytes

     Torrent Downloaded from Limetorrents.com.txt -
46 bytes



Description



http://img543.imageshack.us/img543/7407/rickrossastonmartin.png


http://img689.imageshack.us/img689/5558/rickrossastonmartin2.png


[code]General
Complete name : Rick Ross ft Chrisette Michele and Drake - Aston Martin Music [KingPinVideos].mpg
Format : MPEG-PS
File size : 127 MiB
Duration : 6mn 13s
Overall bit rate : 2 857 Kbps
Writing library : encoded by TMPGEnc 4.0 XPress Version. 4.7.4.299

Video
ID : 224 (0xE0)
Format : MPEG Video
Format version : Version 1
Format settings, BVOP : Yes
Format settings, Matrix : Default
Duration : 6mn 13s
Bit rate mode : Constant
Bit rate : 2 615 Kbps
Nominal bit rate : 2 700 Kbps
Width : 384 pixels
Height : 208 pixels
Display aspect ratio : 16:9
Frame rate : 29.970 fps
Resolution : 8 bits
Scan type : Progressive
Bits/(Pixel*Frame) : 1.093
Stream size : 116 MiB (92%)
Writing library : TMPGEnc XPress 4.7.4.299

Audio
ID : 192 (0xC0)
Format : MPEG Audio
Format version : Version 1
Format profile : Layer 2
Duration : 6mn 13s
Bit rate mode : Constant
Bit rate : 128 Kbps
Channel(s) : 2 channels
Sampling rate : 48.0 KHz
Stream size : 5.70 MiB (4%)[/code]

Related torrents

Torrent NameAddedSizeSeedLeechHealth
1 Year+ - in Music232.64 MB00
1 Year+ - in Music5.16 MB012
1 Year+ - in Music5.16 MB00
1 Year+ - in Music5.16 MB03
1 Year+ - in Music2.09 MB00

Comments (1 comment)




KingPin
» Torrent Uploader Torrent Uploader » Downloaded this torrent Downloaded this torrent

Added 1 Year+
MKV VERSION
http://ul.to/kbc9rj
Please login or create a FREE account to post comments

Latest Searches

| lordi babez for breakfast 2010 mp3 320kbps | X MIX DANCE SERIES 207 | worlds greatest kelly | Chris Brown Liquor Clean | To Be and to Have 2002 1080p BluRay x264 SONiDO brrip eu | marron 5 one more | MongoDB Essentials | The 100 Season 3 TV Series | dual audio The Matrix Trilogy 1999 2003 | 60s cover |