Quick Browse
Movies
TV shows
Music
Games
Applications
Anime
Other

Advertising

Friends
Torrents.me
Torrent Download
Free Movies
1337x
RARBG
Torrent Downloads

Verified torrent Rihanna - Only Girl {In The World} [KingPinVideos]


    Seeders : 281      Leechers : 74

Hash :3B42AA818686BC5AD07032332E79582477206FA1
Added :1 Year+ by KingPinVerified torrent uploader in Music - Music Videos
Size :86.63 MB
Stream :Watch Online Full Movie @ Movie4u
Share :









Warning! Do not Download Torrents Without a VPN!
Your IP Address is .   And Location is
Your Internet Provider and Government can track your torrent Activity!  Hide your IP ADDRESS with a VPN!
We Strongly Recommend Using SpyOFF Torrent VPN to Anonymize your Torrenting. It's FREE for 15 Days!

Note :

Please Update (Trackers Info) Before Downloading Torrents to See Updated Seeders And Leechers for Batter Download Speed.

Trackers List

Tracker NameLast CheckStatusSeedersLeechers




Torrent File Content (5 files)


Rihanna - Only Girl {In The World} [KingPinVideos]
     Rihanna - Only Girl {In The World} [KingPinVideos].mpg -
86.62 MB

     Rihanna - Only Girl {In The World} [KingPinVideos].nfo -
1.9 KB

     Rihanna - Only Girl {In The World} [KingPinVideos].txt -
1.64 KB

     Torrent downloaded from Demonoid.com.txt -
47 bytes

     Torrent Downloaded from Limetorrents.com.txt -
46 bytes



Description



http://img524.imageshack.us/img524/8452/rihannaonlygirl2.png


http://img176.imageshack.us/img176/7183/rihannaonlygirl.png


[code]General
Complete name : Rihanna - Only Girl {In The World} [KingPinVideos].mpg
Format : MPEG-PS
File size : 86.6 MiB
Duration : 4mn 14s
Overall bit rate : 2 856 Kbps
Writing library : encoded by TMPGEnc 4.0 XPress Version. 4.7.4.299

Video
ID : 224 (0xE0)
Format : MPEG Video
Format version : Version 1
Format settings, BVOP : Yes
Format settings, Matrix : Default
Duration : 4mn 14s
Bit rate mode : Constant
Bit rate : 2 615 Kbps
Nominal bit rate : 2 700 Kbps
Width : 384 pixels
Height : 208 pixels
Display aspect ratio : 16:9
Frame rate : 29.970 fps
Resolution : 8 bits
Scan type : Progressive
Bits/(Pixel*Frame) : 1.092
Stream size : 79.3 MiB (92%)
Writing library : TMPGEnc XPress 4.7.4.299

Audio
ID : 192 (0xC0)
Format : MPEG Audio
Format version : Version 1
Format profile : Layer 2
Duration : 4mn 14s
Bit rate mode : Constant
Bit rate : 128 Kbps
Channel(s) : 2 channels
Sampling rate : 48.0 KHz
Stream size : 3.88 MiB (4%)[/code]

Related torrents

Torrent NameAddedSizeSeedLeechHealth
4 months ago - in Other10 MB00
4 months ago - in Other4.02 MB00
5 months ago - in Other23.56 MB00
1 Year+ - in Other3.83 MB00
1 Year+ - in Music1.8 MB00

Note :

Feel free to post any comments about this torrent, including links to Subtitle, samples, screenshots, or any other relevant information. Please Dont Download anything from Comments, And Dont Post Links to Streaming Sites like Fmovies, Xmovies8, 123Movies, GoMovies, CMovieshd, Solarmovie, Watchfree, Putlockers, GoStream, m4ufree etc.

Comments (1 comment)




KingPin
» Torrent Uploader Torrent Uploader » Downloaded this torrent Downloaded this torrent

Added 1 Year+
Get the MKV version right here
http://ul.to/w9zj8o
Please login or create a FREE account to post comments

Latest Searches

| Stan Against Evil S01E03 HDTV x264 SDI | Venkatadri Express dual | Nomadi 2017 | adobe dreamweaver cc crack | movie china town malayalam | stranded s chloe | TransAtPlay Natalia Velasquez Nothing But Sweet Dick Dreaming 05 Apr 2016 rq 720p mp4 | sexy noise | crooked house evo | Planet Gang Bang 7 2016 WEB DL SPLIT SCENES |