Quick Browse
Movies
TV shows
Music
Games
Applications
Anime
Other
Facebook
Advertising

Friends
Torrent Download
Movie4u
1337x.to
Torrent Downloads




Verified torrent Rio (2011) R5 XviD-MAXSPEED


    Seeders : 0      Leechers : 0
Hash :7CAD736A05DA4438F456D3E0F128C2943A0FD024
Added :1 Year+ by piratepediaVerified torrent uploader in Movies
Size :1.41 GB
Stream :WATCH ONLINE @ Movie4u


Rio (2011) R5 XviD-MAXSPEED
Free and Fast Download with Usenet 300GB+ free







Trackers List

Tracker NameLast CheckStatusSeedersLeechers




Torrent File Content (8 files)


Rio (2011) R5 XviD-MAXSPEED
     Rio (2011) R5 XviD-MAXSPEED www.torentz.3xforum.ro.avi -
1.4 GB

     sample.avi -
10.39 MB

     screencaps.jpeg -
612.97 KB

     Rio (2011) R5 XviD-MAXSPEED.nfo -
2.56 KB

     Torrent downloaded from Demonoid.me.txt -
46 bytes

     Torrent downloaded from Extratorrent.com.txt -
40 bytes

     Torrent downloaded from Rarbg.com.txt -
33 bytes

     Torrent downloaded from h33t.com.txt -
32 bytes



Description



http://i3.ambrybox.com/060511/1304696297282.jpg


Screens:

http://i3.ambrybox.com/060511/1304696315734.jpg

http://i3.ambrybox.com/060511/1304696331446.jpg

http://i3.ambrybox.com/060511/1304696346265.jpg

http://i3.ambrybox.com/060511/1304696359468.jpg


Alternative:

[code]http://www.postimg.com/image/36000/photo-35767.jpg
http://www.postimg.com/image/36000/photo-35768.jpg
http://www.postimg.com/image/36000/photo-35769.jpg
http://www.postimg.com/image/36000/photo-35770.jpg[/code]

ScreenCaps:

http://www.postimg.com/36000/photo-35776.jpg


[code]Rio (2011) R5 XviD-MAXSPEED
Format : AVI
Format/Info : Audio Video Interleave
Format profile : OpenDML
File size : 1.40 GiB
Duration : 1h 34mn
Overall bit rate : 2 114 Kbps
Writing application : AVI-Mux GUI 1.17.8.3, Feb 16 201019:42:50

Video
ID : 0
Format : MPEG-4 Visual
Format profile : [email protected]
Format settings, BVOP : Yes
Format settings, QPel : No
Format settings, GMC : No warppoints
Format settings, Matrix : Custom
Muxing mode : Packed bitstream
Codec ID : XVID
Codec ID/Hint : XviD
Duration : 1h 34mn
Bit rate : 1 923 Kbps
Width : 720 pixels
Height : 304 pixels
Display aspect ratio : 2.35:1
Frame rate : 25.000 fps
Resolution : 24 bits
Colorimetry : 4:2:0
Scan type : Progressive
Bits/(Pixel*Frame) : 0.352
Stream size : 1.27 GiB (91%)
Writing library : XviD 1.2.1 (UTC 2008-12-04)

Audio
ID : 1
Format : MPEG Audio
Format version : Version 1
Format profile : Layer 3
Codec ID : 55
Codec ID/Hint : MP3
Duration : 1h 34mn
Bit rate mode : Constant
Bit rate : 192 Kbps
Channel(s) : 2 channels
Sampling rate : 44.1 KHz
Resolution : 16 bits
Stream size : 126 MiB (9%)
Alignment : Aligned on interleaves
Interleave, duration : 446 ms (11.15 video frames)
Interleave, preload duration : 208 ms
Writing library : LAME3.98.2

Source: DVD5+MP3 audio (perfect a/v/sync quality,sample included)

Uploader Note: Seedbox is not supported on this torrent so please seed
to the MAX

How To Get Your Maxspeed (uTorrent)

Torrent Client - Preferences - Bandwidth - Number of connections - Set aprox. 500 for each
Torrent Client - Preferences - BiTorrent - Protocol Encryption - Forced
Bandwidth Allocation - High (Set download/upload limit - Unlimited)
Stop Other Active Torrents - Start downloading and wait for connections.
Enjoy and Seed for at least 1:1 ratio. Don't forget to say thanks/leave reviews.
Before downloading you should check/google search sample "release name""sample".
Greets to all actual/future p2p/scene QUALITY groups and affiliate websites.
Don't trust IMDb robot or bad ratings,always watch some trailers first.
Ignore stupid comments/fake/mislabeled/no-DVDrips/CAM/TS/RAR uploads.
Please spread this release/torrent to your friends/forums/etc.
If you need translation subs visit some subtitles sites.
Report if you see online streaming or other spam links.
Recommended movie player VLC PLAYER.[/code]

Related torrents

Torrent NameAddedSizeSeedLeechHealth
1 Year+ - in Movies388.06 MB22
1 Year+ - in Movies1.42 GB00
1 Year+ - in Movies3.2 GB00
1 Year+ - in Movies1.41 GB00
1 Year+ - in Movies710.87 MB06

Comments (4 Comments)




tfinley23
» Downloaded this torrent Downloaded this torrent » Voted Good Voted Good for this torrent for this torrent

Added 1 Year+
great quality
zeyneb
» Downloaded this torrent Downloaded this torrent » Voted Good Voted Good for this torrent for this torrent

Added 1 Year+
thx!!! we enjoyed heaps!!! gr8 quality thx :)
zeyneb
» Downloaded this torrent Downloaded this torrent » Voted Good Voted Good for this torrent for this torrent

Added 1 Year+
thx!!! we enjoyed heaps!!! gr8 quality thx :)
griffbaby26
» Downloaded this torrent Downloaded this torrent » Voted Good Voted Good for this torrent for this torrent

Added 1 Year+
DVD rip very good quality
Please login or create a FREE account to post comments

Latest Searches

| the record ben | its you in the middle | throttle money maker | nelly furtado all good things come to an end | we will rock you official video | All Over Lexington Steele s Monster | attack of the clones 1080p amiable | adore eng ita | used tofuture | wale problem |