Quick Browse
Movies
TV shows
Music
Games
Applications
Anime
Other
Facebook
Advertising

Friends
Torrent Download
Movie4u
1337x.to
Torrent Downloads




Verified torrent Rio R5 LiNE XViD - IMAGiNE


    Seeders : 1      Leechers : 0
Hash :C8C43824A498C9A0BDE6C0354BAB0C252D405EBA
Added :1 Year+ by memory100Verified torrent uploader in Movies
Size :1.39 GB
Stream :WATCH ONLINE @ Movie4u


Rio R5 LiNE XViD - IMAGiNE
Free and Fast Download with Usenet 300GB+ free







Trackers List

Tracker NameLast CheckStatusSeedersLeechers




Torrent File Content (9 files)


Rio R5 LiNE - IMAGiNE
     Budget seedboxs.txt -
44 bytes

     NW RG.nfo -
12.96 KB

     Rio R5 LiNE - IMAGiNE SAMPLE.avi -
38.37 MB

     Rio R5 LiNE - IMAGiNE.avi -
1.35 GB

     Rio R5 line XViD - IMAGiNE.NFO -
5.41 KB

     Torrent downloaded from Demonoid.me.txt -
46 bytes

     northernwarriors.net.txt -
135 bytes

     sceneunderground.org.txt -
77 bytes

     visiontracker.net.txt -
91 bytes



Description



http://img684.imageshack.us/img684/2543/65087040.jpg

[code]
Rio R5 line XViD - IMAGiNE

Ripper ...........:IMAGiNE IMDB Rating.......:7.5/10
Video Codec.......:XVID Release Date......:12/04/11
Audio Codec.......:MP3 Theatre Date......:15/04/11
Audio Bitrate.....:128 Runtime...........:1h 31mn
Subtitles.........:NIL Language..........:ENGLISH
Resolution........:720 x 304 IMDb URL.......... http://www.imdb.com/title/tt1436562/


DETAILS:

Video
ID : 0
Format : MPEG-4 Visual
Format profile : Advanced [email protected]
Format settings, BVOP : Yes
Format settings, QPel : No
Format settings, GMC : No warppoints
Format settings, Matrix : Default (MPEG)
Muxing mode : Packed bitstream
Codec ID : XVID
Codec ID/Hint : XviD
Duration : 1h 31mn
Bit rate : 1 960 Kbps
Width : 720 pixels
Height : 304 pixels
Display aspect ratio : 2.35:1
Frame rate : 25.000 fps
Color space : YUV
Chroma subsampling : 4:2:0
Bit depth : 8 bits
Scan type : Progressive
Compression mode : Lossy
Bits/(Pixel*Frame) : 0.358
Stream size : 1.26 GiB (93%)
Writing library : XviD 61

Audio
ID : 1
Format : MPEG Audio
Format version : Version 1
Format profile : Layer
Mode : Joint stereo
Mode extension : MS Stereo
Codec ID : 55
Codec ID/Hint : MP3
Duration : 1h 31mn
Bit rate mode : Constant
Bit rate : 128 Kbps
Channel(s) : 2 channels
Sampling rate : 44.1 KHz
Compression mode : Lossy
Stream size : 84.2 MiB (6%)
Alignment : Split accross interleaves
Interleave, duration : 40 ms (1.00 video frame)
Interleave, preload duration : 500 ms
Writing library : LAME3.98r
Encoding settings : -m j -V 4 -q 2 -lowpass 17 -b 128

PLOT:
When Blu, a domesticated macaw from small-town Minnesota, meets the fiercely independent Jewel, he takes off on an adventure to Rio de Janeiro with this bird of his dreams.

SOURCES:
VIDEO:Rio.DVD.R5.R.G.KINOPARK ............ Thanks
AUDIO:Rio ....Thanks m8ty

NOTES:
IMAGiNE bringing you another release.......... Rio

We first of thanks to our friends from KINOPARK for the vobs... Thanks MateOkay on to the release, the video was not the best R5 we have seen but we did some improvements...
We started off making a script to crop, resize, and a slight sparpening script...
Then on to the RGB EG to do a few things with the colors to bring them out a little better and clearer...
Now onto the audio, we used our original line audio and synced that to this release then simply muxed the audio and video together...

Enjoy Another Fine Release By IMAGiNE...!!!
[/code]
Screens:
http://img808.imageshack.us/img808/6448/31674909.jpg

http://img29.imageshack.us/img29/8804/40900952.jpg

http://img825.imageshack.us/img825/6189/57328189.jpg

http://img171.imageshack.us/img171/7365/92675250.jpg

http://img854.imageshack.us/img854/7507/35318058.jpg

Related torrents

Torrent NameAddedSizeSeedLeechHealth
1 Year+ - in Movies1.39 GB4225
1 Year+ - in Movies1.39 GB00
1 Year+ - in Movies1.42 GB00
1 Year+ - in Movies1.42 GB03
1 Year+ - in Movies1.37 GB00

Comments (0 Comments)




Please login or create a FREE account to post comments

Latest Searches

| can i back it up | hairy pussy photos | Luna Fucks Drake Ford | Transporter The Series 2012 S01e02 | IN A QUIET VILLAGE | teen jojo | Eva Notty Eva Notty Her Personal Bra Salesman | kahaani 2 2016 dvdrip | cockninjastudios itty bitty pussy | MDX with Microsoft SQL Server |