Quick Browse
Movies
TV shows
Music
Games
Applications
Anime
Other
Facebook
Advertising

Friends
Torrent Download
Movie4u
1337x.to
Torrent Downloads




Verified torrent Rio TS XViD - IMAGiNE [NO RAR]


    Seeders : 1      Leechers : 1
Hash :61FD9277F6CF17F2AA8904A0FE34A6185D5C84EE
Added :1 Year+ by memory100Verified torrent uploader in Movies
Size :1.39 GB
Stream :WATCH ONLINE @ Movie4u


Rio TS XViD - IMAGiNE [NO RAR]
Free and Fast Download with Usenet 300GB+ free







Trackers List

Tracker NameLast CheckStatusSeedersLeechers




Torrent File Content (8 files)


Rio TS XViD - IMAGiNE
     Budget seedboxs.txt -
44 bytes

     NW RG.nfo -
12.96 KB

     Pleas read!!!!.txt -
135 bytes

     Rio TS XViD - IMAGiNE.NFO -
6.16 KB

     Rio TS XViD - IMAGiNE.avi -
1.37 GB

     Rio TS XViD - SAMPLE.avi -
24.96 MB

     Torrent downloaded from Demonoid.me.txt -
46 bytes

     Vision Tracker.txt -
109 bytes



Description



http://img708.imageshack.us/img708/9229/posterdy.jpg

[CODE]
Rio TS XViD - IMAGiNE

Ripper ...........: IMAGiNE IMDB Rating.......:7.5/10
Video Codec.......: XVID Release Date......:12/04/11
Audio Codec.......:MP3 Theatre Date......:15/04/11
Audio Bitrate.....:128 Runtime.......:1h 22mn
Subtitles.........:NIL Language..........:ENGLISH
Resolution...... 720 x 304 IMDb URL.......... http://www.imdb.com/title/tt1436562/

DETAILS:
Video
ID : 0
Format : MPEG-4 Visual
Format profile : Advanced [email protected]
Format settings, BVOP : 2
Format settings, QPel : No
Format settings, GMC : No warppoints
Format settings, Matrix : Default (MPEG)
Muxing mode : Packed bitstream
Codec ID : XVID
Codec ID/Hint : XviD
Duration : 1h 22mn
Bit rate : 2 227 Kbps
Width : 720 pixels
Height : 304 pixels
Display aspect ratio : 2.35:1
Frame rate : 25.000 fps
Color space : YUV
Chroma subsampling : 4:2:0
Bit depth : 8 bits
Scan type : Progressive
Compression mode : Lossy
Bits/(Pixel*Frame) : 0.407
Stream size : 1.29 GiB (94%)
Writing library : XviD 61

Audio
ID : 1
Format : MPEG Audio
Format version : Version 1
Format profile : Layer 3
Mode : Joint stereo
Mode extension : MS Stereo
Codec ID : 55
Codec ID/Hint : MP3
Duration : 1h 22mn
Bit rate mode : Constant
Bit rate : 128 Kbps
Channel(s) : 2 channls
Sampling rate : 44.1 KHz
Compression mode : Lossy
Stream size : 75.9 MiB (5%)
Alignment : Split accross interleaves
Interleave, duration : 40 ms (1.00 video frame)
Interleave, preload duration : 500 ms
Writing library : LAME3.98r
Encoding settings : -m j -V 4 -q 2 -lowpass 17 -b 128

PLOT:When Blu, a domesticated macaw from small-town Minnesota, meets the fiercely independent Jewel, he takes off on an adventure to Rio de Janeiro with this bird of his dreams.

SOURCES:
VIDEO:Rio.D.2011.TS ............ Thanks
AUDIO:Rio ....Thanks m8tY

NOTES:

IMAGiNE bringing you another release..........Rio 2011

Here we go we a half decent release to this flick....video is the 2D russian cam and the line is some nice line audio

Now video needed tweaking and also resizing so fixed what we could,but throughout the film there

seems to be a band of yellow that appears over the video,then it goes ...then comes back,not as fast as that though lol.

Also whilst syncing we found some missing video footage ....not too much just a few secs,but one waS during a mid sentence so the audio might slip for a sec and kick back in....but we did go back a fix itas close as we could.

Audio like stated was some decent line,we just cleaned up and synced.
Overall a pretty decent TS and will do until the r5/retail comes out .....
Oh and will it work on a ps3 ??? Fuck knows try it and find out
[/CODE]
Screens:
http://img703.imageshack.us/img703/5584/75034679.jpg

http://img16.imageshack.us/img16/5606/15075434.jpg

http://img38.imageshack.us/img38/1184/17898342.jpg


Related torrents

Torrent NameAddedSizeSeedLeechHealth
1 Year+ - in Movies1.39 GB66479
1 Year+ - in Movies1.39 GB9011,167
1 Year+ - in Movies1.39 GB243
Verified torrent
1 Year+ - in Movies2.08 GB00
1 Comments
1 Good
Verified torrent
1 Year+ - in Movies1.38 GB1101

Comments (0 Comments)




Please login or create a FREE account to post comments

Latest Searches

| simpson all | 2015 | Ureshii Amatsuki 01 13 XviD | nl 55 | rb rock high | Harpers Island | Lumidee Lumi OfficialRAPby dragan09 | E 4 and 2 Chainz | sugar mountain xvid | teen juliana |