Quick Browse
Movies
TV shows
Music
Games
Applications
Anime
Other
Facebook
Advertising

Friends
Torrent Download
Movie4u
1337x.to
Torrent Downloads




Rise of the Planet of the Apes 2011-MP4 AAC BRRip-CC


    Seeders : 1      Leechers : 10
Hash :55ABC4E6025A540DB775973F9AC1E9971C4478B5
Added :1 Year+ by Cavemania in Movies
Size :1.56 GB
Stream :WATCH ONLINE @ Movie4u


Rise of the Planet of the Apes 2011-MP4 AAC BRRip-CC
Free and Fast Download with Usenet 300GB+ free







Trackers List

Tracker NameLast CheckStatusSeedersLeechers




Torrent File Content (12 files)


Rise of the Planet of the Apes 2011-MP4 AAC BRRip-CC
    Screens-Info
          Rise of the Planet of the Apes 2011-MP4 AAC BRRip-CC-Screens.jpg -
253.03 KB

          Rise of the Planet of the Apes 2011-MP4 AAC BRRip-CC-Info.txt -
3.66 KB

     Rise of the Planet of the Apes 2011-MP4 AAC BRRip-CC.mp4 -
1.54 GB

     Rise of the Planet of the Apes 2011-MP4 AAC BRRip-CC Sample.mp4 -
18.06 MB

     Rise of the Planet of the Apes 2011-MP4 AAC BRRip-CC English.srt -
53.33 KB

     Rise of the Planet of the Apes 2011-MP4 AAC BRRip-CC Dutch.srt -
42.69 KB

     Torrent downloaded from extratorrent.com.txt -
83 bytes

     Torrent_downloaded_from_AhaShare.com.txt -
63 bytes

     Torrent Downloaded from Limetorrents.com.txt -
48 bytes

     Torrent downloaded from Demonoid.me.txt -
46 bytes

     Torrent Downloaded from SilverTorrents.me.txt -
41 bytes

     Torrent downloaded from torrentforce.org.txt -
40 bytes



Description



http://img692.imageshack.us/img692/3929/25601945.jpg


http://www.imdb.com/title/tt1318514/

Source: Rise of the Planet of the Apes 2011 BluRay 720p DTS 2Audio x264-CHD

Subs: Dutch, English.

Sample and Screens included.

General
Complete name : Rise of the Planet of the Apes 2011-MP4 AAC BRRip-CC.mp4
Format : MPEG-4
Format profile : Base Media
Codec ID : isom
File size : 1.54 GiB
Duration : 1h 44mn
Overall bit rate : 2 098 Kbps
Encoded date : UTC 2011-11-06 19:31:25
Tagged date : UTC 2011-11-06 19:31:25
Writing application : Yamb 2.1.0.0

Video
ID : 1
Format : AVC
Format/Info : Advanced Video Codec
Format profile : [email protected]
Format settings, CABAC : Yes
Format settings, ReFrames : 1 frame
Codec ID : avc1
Codec ID/Info : Advanced Video Coding
Duration : 1h 44mn
Bit rate mode : Variable
Bit rate : 1 719 Kbps
Maximum bit rate : 8 407 Kbps
Width : 720 pixels
Height : 304 pixels
Display aspect ratio : 2.35:1
Frame rate mode : Variable
Frame rate : 23.976 fps
Minimum frame rate : 23.976 fps
Maximum frame rate : 23.988 fps
Resolution : 8 bits
Colorimetry : 4:2:0
Scan type : Progressive
Bits/(Pixel*Frame) : 0.328
Stream size : 1.25 GiB (82%)
Writing library : x264 core 65
Encoding settings : cabac=1 / ref=1 / deblock=1:0:0 / analyse=0x1:0x111 / me=hex / subme=6 / psy_rd=1.0:0.0 / mixed_ref=0 / me_range=16 / chroma_me=1 / trellis=0 / 8x8dct=0 / cqm=0 / deadzone=21,11 / chroma_qp_offset=-2 / threads=3 / nr=0 / decimate=1 / mbaff=0 / bframes=0 / keyint=240 / keyint_min=24 / scenecut=40(pre) / rc=abr / bitrate=1719 / ratetol=1.0 / qcomp=0.60 / qpmin=10 / qpmax=51 / qpstep=4 / ip_ratio=1.40 / aq=1:1.00
Encoded date : UTC 2011-11-07 18:13:23
Tagged date : UTC 2011-11-06 19:33:06
Color primaries : BT.601-6 525, BT.1358 525, BT.1700 NTSC, SMPTE 170M
Transfer characteristics : BT.709-5, BT.1361
Matrix coefficients : BT.601-6 525, BT.1358 525, BT.1700 NTSC, SMPTE 170M

Audio
ID : 2
Format : AAC
Format/Info : Advanced Audio Codec
Format version : Version 4
Format profile : LC
Format settings, SBR : No
Codec ID : 40
Duration : 1h 44mn
Bit rate mode : Variable
Bit rate : 384 Kbps
Maximum bit rate : 546 Kbps
Channel(s) : 6 channels
Channel positions : Front: L C R, Rear: L R, LFE
Sampling rate : 48.0 KHz
Stream size : 288 MiB (18%)
Language : English
Encoded date : UTC 2011-11-06 19:32:27
Tagged date : UTC 2011-11-06 19:33:06

Thanks to Simply ReleaseS Toppers for the Dutch subs. Awesom job peeps!

http://img851.imageshack.us/img851/531/riseoftheplanetoftheapexs.jpg

Related torrents

Torrent NameAddedSizeSeedLeechHealth
1 Year+ - in Movies896.82 MB00
1 Year+ - in Movies1.37 GB00
1 Year+ - in Movies1.44 GB02
1 Year+ - in Movies719.02 MB00
1 Year+ - in Movies720.98 MB13

Comments (0 Comments)




Please login or create a FREE account to post comments

Latest Searches

| Black ish s 2 | predators xxx | auddict deep | The Long Dark Alpha v375 | big b addicted | vavamuffin v | The Tudors S01 COMPLETE HDTV | mp4 Youtube com | flac hail to the king | big b addicted |