Quick Browse
Movies
TV shows
Music
Games
Applications
Anime
Other
Facebook
Advertising

Friends
Torrent Download
Movie4u
1337x.to
Torrent Downloads




Verified torrent Robin Hood 2010 Hindi x264-=[TDT][email protected]


    Seeders : 6      Leechers : 9

Trackers List

Tracker NameLast CheckStatusSeedersLeechers




Torrent File Content (2 files)


Robin Hood . 2010. mkv.x264.by imkhan.-=[TDT]=-
     Robin Hood . 2010. mkv.x264.by imkhan.-=[TDT]=-.mkv -
704.81 MB

     Robin Hood 2010-Sample.mkv -
4.77 MB



Description



[color=green][font=Georgia]http://www.imdb.com/title/tt0955308/
General
Complete name : F:/Robin Hood . 2010. mkv.x264.by imkhan.-=[TDT]=-.mkv
Format : Matroska
File size : 705 MiB
Duration : 2h 29mn
Overall bit rate : 659 Kbps
Encoded date : UTC 2010-09-28 16:44:38
Writing application : mkvmerge v4.2.0 ('No Talking') built on Jul 28 2010 18:38:23
Writing library : libebml v1.0.0 + libmatroska v1.0.0
Video
ID : 1
Format : AVC
Format/Info : Advanced Video Codec
Format profile : [email protected]
Format settings, CABAC : No
Format settings, ReFrames : 1 frame
Muxing mode : Container [email protected]
Codec ID : V_MPEG4/ISO/AVC
Duration : 2h 29mn
Bit rate : 518 Kbps
Nominal bit rate : 526 Kbps
Width : 720 pixels
Height : 304 pixels
Display aspect ratio : 2.35:1
Frame rate : 23.976 fps
Resolution : 24 bits
Colorimetry : 4:2:0
Scan type : Progressive
Bits/(Pixel*Frame) : 0.099
Stream size : 553 MiB (79%)
Writing library : x264 core 80 r1378+57 6f6b50a
Encoding settings : cabac=0 / ref=1 / deblock=1:0:0 / analyse=0x3:0x113 / me=hex / subme=7 / psy=1 / psy_rd=1.0:0.0 / mixed_ref=0 / me_range=16 / chroma_me=1 / trellis=0 / 8x8dct=1 / cqm=0 / deadzone=21,11 / fast_pskip=1 / chroma_qp_offset=-2 / threads=3 / sliced_threads=0 / nr=0 / decimate=1 / mbaff=0 / constrained_intra=0 / bframes=0 / wpredp=2 / keyint=250 / keyint_min=25 / scenecut=40 / rc_lookahead=40 / rc=abr / mbtree=1 / bitrate=526 / ratetol=1.0 / qcomp=0.60 / qpmin=10 / qpmax=51 / qpstep=4 / ip_ratio=1.40 / aq=1:1.00
Audio
ID : 2
Format : MPEG Audio
Format version : Version 1
Format profile : Layer 3
Codec ID : A_MPEG/L3
Codec ID/Hint : MP3
Duration : 2h 29mn
Bit rate mode : Constant
Bit rate : 128 Kbps
Channel(s) : 2 channels
Sampling rate : 44.1 KHz
Resolution : 16 bits
Stream size : 137 MiB (19%)
Title : imkhan
Language : Hindi

[/font][/color]
[/img]http://img829.imageshack.us/img829/5863/46702799.jpg
br /
http://img214.imageshack.us/img214/6816/16354986.jpg
br /
http://img829.imageshack.us/img829/9271/38434911.jpg
br /
http://img691.imageshack.us/img691/2749/26792595.jpg
br /
http://img814.imageshack.us/img814/6738/89127734.jpg
br /
http://img833.imageshack.us/img833/2287/60962939.jpg
br /
http://img227.imageshack.us/img227/7349/23924277.jpg[img]

Related torrents

Torrent NameAddedSizeSeedLeechHealth
Verified torrent
1 Year+ - in Movies1.28 GB68118
4 months ago - in Movies3.07 GB00
1 Year+ - in Movies4.22 GB10
1 Year+ - in Movies1.35 GB10
1 Year+ - in Movies401.56 MB24

Comments (0 Comments)




Please login or create a FREE account to post comments

Latest Searches

| badass bluray | encyclopedia fruits | 888 mp3 | Eros Ramazzotti Anastacia I Belong To You il ritmo della passione | the record ben | its you in the middle | throttle money maker | nelly furtado all good things come to an end | we will rock you official video | All Over Lexington Steele s Monster |