Quick Browse
Movies
TV shows
Music
Games
Applications
Anime
Other
Facebook
Advertising

Friends
Torrent Download
Movie4u
1337x.to
Torrent Downloads




Run [B]itch Run - 2009 - DVDRip - Xvid.TA


    Seeders : 0      Leechers : 0
Hash :72E90DD3A30EF7347691817F4257EA64C73DC911
Added :1 Year+ in Movies
Size :783.59 MB
Stream :WATCH ONLINE @ Movie4u


Run [B]itch Run - 2009 - DVDRip - Xvid.TA
Free and Fast Download with Usenet 300GB+ free







Trackers List

Tracker NameLast CheckStatusSeedersLeechers




Torrent File Content (3 files)


Run.Bitch.Run.2009.DVDRip.Xvid.TA
     Run.Bitch.Run-DVDRip.Xvid.TA.Sample.avi -
63.71 MB

     Run.Bitch.Run.2009.DVDRip.Xvid.TA.avi -
719.6 MB

     poster.png -
289.25 KB



Description



Description

General
Complete name : Run.Bitch.Run.2009.DVDRip.Xvid.TA.avi
Format : AVI
Format/Info : Audio Video Interleave
File size : 719 MiB
Duration : 1h 25mn
Overall bit rate : 1 170 Kbps
Writing library : VirtualDub build 32661/release

Video
ID : 0
Format : MPEG-4 Visual
Format profile : [email protected]
Format settings, BVOP : Yes
Format settings, QPel : No
Format settings, GMC : No warppoints
Format settings, Matrix : Custom
Muxing mode : Packed bitstream
Codec ID : XVID
Codec ID/Hint : XviD
Duration : 1h 25mn
Bit rate : 998 Kbps
Width : 716 pixels
Height : 396 pixels
Display aspect ratio : 16:9
Frame rate : 29.970 fps
Resolution : 24 bits
Colorimetry : 4:2:0
Scan type : Progressive
Bits/(Pixel*Frame) : 0.117
Stream size : 614 MiB (85%)
Writing library : XviD 1.2.1 (UTC 2008-12-04)

Audio
ID : 1
Format : MPEG Audio
Format version : Version 1
Format profile : Layer 3
Codec ID : 55
Codec ID/Hint : MP3
Duration : 1h 25mn
Bit rate mode : Constant
Bit rate : 160 Kbps
Channel(s) : 2 channels
Sampling rate : 44.1 KHz
Resolution : 16 bits
Stream size : 98.4 MiB (14%)
Alignment : Split accross interleaves
Interleave, duration : 33 ms (1.00 video frame)
Interleave, preload duration : 500 ms
Writing library : LAME3.97
Christina DeRosa ... Rebecca
Cheryl Lyone ... Catherine
Peter Tahoe ... Lobo
Johnny Winscher ... Clint
Ivet Corvea ... Marla
Mike Tursi ... Abe
Chenoa Mason ... Holly



Catherine and Rebecca are two Catholic School girls going door-to-door selling Religious paraphernalia in order to pay for their books and education. Things go horribly wrong when they knock on the wrong door in the wrong neighborhood. Run! Bitch Run! is a throw back to the classic 1970's Rape and Revenge films like 'Last House On the Left' and 'Ms. 45.

Related torrents

Torrent NameAddedSizeSeedLeechHealth
1 Year+ - in Movies783.31 MB00
1 Year+ - in Movies719.6 MB5128
4 months ago - in Movies9.29 GB1418
6 months ago - in Other1.57 GB00
6 months ago - in Movies1022.54 MB00

Comments (0 Comments)




Please login or create a FREE account to post comments

Latest Searches

| allover30 mindy | Sully 2016 720p BRRip x264 AAC | transformers ita sbs | too short on my | Pure 13 pure passion | shyla stylez deep | two ocean | prance r | where i go wrong | Lana Rhoades 19 Year Old Natural Busty Gets Covered In Cream |