Quick Browse
Movies
TV shows
Music
Games
Applications
Anime
Other
Facebook
Advertising

Friends
Torrent Download
Movie4u
1337x.to
Torrent Downloads




Verified torrent Safe House[2012]R5 Full Line XviD-AUTOPSiE


    Seeders : 1      Leechers : 0
Hash :C21A73E5C7EB82397B08528F8657D96C4BF517B4
Added :1 Year+ by robyrsVerified torrent uploader in Movies
Size :1.05 GB
Stream :WATCH ONLINE @ Movie4u


Safe House[2012]R5 Full Line XviD-AUTOPSiE
Free and Fast Download with Usenet 300GB+ free







Trackers List

Tracker NameLast CheckStatusSeedersLeechers




Torrent File Content (6 files)


Safe House[2012]R5 Full Line XviD-AUTOPSiE
     ENGLISH.sub -
4.33 MB

     Safe House[2012]R5 Full Line XviD-AUTOPSiE.avi -
1.05 GB

     Torrent downloaded from AhaShare.com.txt -
59 bytes

     Torrent downloaded from Demonoid.me.txt -
46 bytes

     Torrent downloaded from h33t.com.txt -
32 bytes

     Torrent downloaded from Rarbg.com.txt -
33 bytes



Description



http://img256.imageshack.us/img256/5633/safehouseposter2.jpg


Safe House[2012]R5 Full Line XviD-AUTOPSiE

A young CIA agent is tasked with looking after a fugitive in a safe house. But when the safe house is attacked, he finds himself on the run with his charge.

http://www.imdb.com/title/tt1599348/


http://img651.imageshack.us/img651/6306/safehouseposter.jpg


http://img140.imageshack.us/img140/2817/image00001ah.jpg


http://img851.imageshack.us/img851/7845/image00002jp.jpg


http://img20.imageshack.us/img20/2648/image00003nf.jpg


http://img526.imageshack.us/img526/4360/image00004al.jpg


http://img855.imageshack.us/img855/3073/image00005ef.jpg




Source: CrEwSaDe....THX

Format : AVI
Format/Info : Audio Video Interleave
File size : 1.05 GiB
Duration : 1h 11mn
Overall bit rate : 1 694 Kbps
Writing application : Lavf51.12.1
Writing library : VirtualDub build 33848/release

Video
ID : 0
Format : MPEG-4 Visual
Format profile : Advanced [email protected]
Format settings, BVOP : Yes
Format settings, QPel : No
Format settings, GMC : No warppoints
Format settings, Matrix : Default (H.263)
Muxing mode : Packed bitstream
Codec ID : XVID
Codec ID/Hint : XviD
Duration : 1h 11mn
Bit rate : 1 492 Kbps
Width : 720 pixels
Height : 304 pixels
Display aspect ratio : 2.35:1
Frame rate : 25.000 fps
Color space : YUV
Chroma subsampling : 4:2:0
Bit depth : 8 bits
Scan type : Progressive
Bits/(Pixel*Frame) : 0.273
Stream size : 1.22 GiB (88%)
Writing library : XviD 1.2.1 (UTC 2008-12-04)

Audio
ID : 1
Format : MPEG Audio
Format version : Version 1
Format profile : Layer 3
Mode : Joint stereo
Mode extension : MS Stereo
Codec ID : 55
Codec ID/Hint : MP3
Duration : 1h 11mn
Bit rate mode : Constant
Bit rate : 192 Kbps
Channel(s) : 2 channels
Stream size : 172 MiB (18%)
Alignment : Split accross interleaves
Interleave, duration : 40 ms (1.00 video frame)
Interleave, preload duration : 500 ms
Writing library : LAME3.98.2

Workdone:
Well getting pm's like crazy...some believe it and some dont, but yes we removed the watermark, but only 90% of it. Then we had a choice to blur it or not for the finishing touch. If we didnt litely blur the area you would be able to see the outline of the watermark, so we litely blur it. Last 2 screenshots will show examples. After that was all done, it was a pain to get this file saved in this new program and we had to read up on it. After that was done we insert it into vdub and did our usual, levels, brightness,contrast,and litely ran a smoother.

Audio: untouched

ENJOY THIS FINE RELEASE BY:
INFERNO

Related torrents

Torrent NameAddedSizeSeedLeechHealth
Verified torrent
1 Year+ - in Movies1.1 GB10
Verified torrent
1 Year+ - in Movies1.11 GB23
Verified torrent
1 Year+ - in Movies1.04 GB10
Verified torrent
1 Year+ - in Movies1.1 GB10
1 Year+ - in Movies754.24 MB00

Comments (0 Comments)




Please login or create a FREE account to post comments

Latest Searches

| deadfish gekkan shoujo nozaki kun 02 special bd 1080p aac mp4 | NbaA0 | VideoCopilot Element 3D v2 2 0 | shyst red kevin gates | caution damian marley | christmas 5 dmc | mrs browns boys 2014 christmas special | wake up romance ivana | Jonathan Strange Mr Norrell 720p s01e02 sneaky | living off the eaten path |