Quick Browse
Movies
TV shows
Music
Games
Applications
Anime
Other
Facebook
Advertising

Friends
Torrent Download
Movie4u
1337x.to
Torrent Downloads




Verified torrent Safe House 2012 ENG R5 LiNE XViD-IMAGiN


    Seeders : 2      Leechers : 0
Hash :6C59102A5A615CE92853707CFB719FC50E808D16
Added :1 Year+ by robyrsVerified torrent uploader in Movies
Size :1.13 GB
Stream :WATCH ONLINE @ Movie4u


Safe House 2012 ENG R5 LiNE XViD-IMAGiN
Free and Fast Download with Usenet 300GB+ free







Trackers List

Tracker NameLast CheckStatusSeedersLeechers




Torrent File Content (7 files)


Safe House 2012 ENG R5 LiNE XViD-IMAGiN
     Safe House 2012 ENG R5 LiNE XViD-IMAGiN.avi -
1.13 GB

     darkcore.me.txt -
834 bytes

     HD File info.txt -
727 bytes

     sceneunderground.org.txt -
77 bytes

     Torrent downloaded from AhaShare.com.txt -
59 bytes

     Torrent downloaded from Suprnova.me.txt -
42 bytes

     Torrent downloaded from Rarbg.com.txt -
33 bytes



Description



http://img256.imageshack.us/img256/5633/safehouseposter2.jpg


Safe House 2012 ENG R5 LiNE XViD-IMAGiN

A young CIA agent is tasked with looking after a fugitive in a safe house. But when the safe house is attacked, he finds himself on the run with his charge.

http://www.imdb.com/title/tt1599348/

Source: boobsman....THX

Format : AVI
Format/Info : Audio Video Interleave
File size : 1.05 GiB
Duration : 1h 11mn
Overall bit rate : 1 694 Kbps
Writing application : Lavf51.12.1
Writing library : VirtualDub build 33848/release

Video
ID : 0
Format : MPEG-4 Visual
Format profile : Advanced [email protected]
Format settings, BVOP : Yes
Format settings, QPel : No
Format settings, GMC : No warppoints
Format settings, Matrix : Default (H.263)
Muxing mode : Packed bitstream
Codec ID : XVID
Codec ID/Hint : XviD
Duration : 1h 11mn
Bit rate : 1 492 Kbps
Width : 720 pixels
Height : 304 pixels
Display aspect ratio : 2.35:1
Frame rate : 25.000 fps
Color space : YUV
Chroma subsampling : 4:2:0
Bit depth : 8 bits
Scan type : Progressive
Bits/(Pixel*Frame) : 0.273
Stream size : 1.22 GiB (88%)
Writing library : XviD 1.2.1 (UTC 2008-12-04)

Audio
ID : 1
Format : MPEG Audio
Format version : Version 1
Format profile : Layer 3
Mode : Joint stereo
Mode extension : MS Stereo
Codec ID : 55
Codec ID/Hint : MP3
Duration : 1h 11mn
Bit rate mode : Constant
Bit rate : 192 Kbps
Channel(s) : 2 channels
Stream size : 172 MiB (18%)
Alignment : Split accross interleaves
Interleave, duration : 40 ms (1.00 video frame)
Interleave, preload duration : 500 ms
Writing library : LAME3.98.2

Workdone:
Well getting pm's like crazy...some believe it and some dont, but yes we removed the watermark, but only 90% of it. Then we had a choice to blur it or not for the finishing touch. If we didnt litely blur the area you would be able to see the outline of the watermark, so we litely blur it. Last 2 screenshots will show examples. After that was all done, it was a pain to get this file saved in this new program and we had to read up on it. After that was done we insert it into vdub and did our usual, levels, brightness,contrast,and litely ran a smoother.

Audio: untouched

ENJOY THIS FINE RELEASE BY:

SCREENS:

http://img651.imageshack.us/img651/6306/safehouseposter.jpg

http://img140.imageshack.us/img140/2817/image00001ah.jpg

http://img851.imageshack.us/img851/7845/image00002jp.jpg

http://img20.imageshack.us/img20/2648/image00003nf.jpg

http://img526.imageshack.us/img526/4360/image00004al.jpg

http://img855.imageshack.us/img855/3073/image00005ef.jpg

Related torrents

Torrent NameAddedSizeSeedLeechHealth
1 Year+ - in Movies755.53 MB1,3401,148
1 Year+ - in Movies755.53 MB1,0591,246
2 Comments
1 Bad
Verified torrent
1 Year+ - in Movies1.06 GB12
2 Comments
1 Good
Verified torrent
1 Year+ - in Movies1.02 GB41
1 Good
Verified torrent
1 Year+ - in Movies1.04 GB178

Comments (1 comment)




sibok
» Downloaded this torrent Downloaded this torrent » Voted Bad Voted Bad for this torrent for this torrent

Added 1 Year+
dont be fooled this is a scam file with fake good torrent reports. sad person who put this up
Please login or create a FREE account to post comments

Latest Searches

| Planet Earth II E5 Grasslands | n c i s s14e08 ettv | the guns of navarone restored | j vo | usher lol Jon | the guns of navarone master | the lost files i am number four | avid media composer 6 5 0 win | Ces amours la 2010 | year 2000 s |