Quick Browse
Movies
TV shows
Music
Games
Applications
Anime
Other
Facebook
Advertising

Friends
Torrent Download
Movie4u
1337x.to
Torrent Downloads




Verified torrent Safe House 2012 TS READNFO XviD AC3-26K


    Seeders : 522      Leechers : 116
Hash :13FE912090FF1746EAECD0BA74B54A0FD212BA8D
Added :1 Year+ by memory100Verified torrent uploader in Movies
Size :1.43 GB
Stream :WATCH ONLINE @ Movie4u


Safe House 2012 TS READNFO XviD AC3-26K
Free and Fast Download with Usenet 300GB+ free







Trackers List

Tracker NameLast CheckStatusSeedersLeechers




Torrent File Content (8 files)


Safe House 2012 TS READNFO XviD AC3-26K
     HDSceneRG.txt -
115 bytes

     Safe House 2012 TS READNFO XviD AC3-26K.avi -
1.41 GB

     Safe House 2012 TS READNFO XviD AC3-26K.nfo -
3.27 KB

     Torrent downloaded from Demonoid.me.txt -
46 bytes

     Torrent downloaded from rarbg.com.txt.txt -
0 bytes

     att-networks.com.txt -
39 bytes

     sample.avi -
23.37 MB

     sceneunderground.org.txt -
77 bytes



Description



http://i.imgur.com/Feb9E.jpg

[code]
Safe House 2012 TS READNFO XviD AC3-26K
Imdb:
http://www.imdb.com/title/tt1599348/

Plot:
A young CIA agent is tasked with looking after a fugitive in a safe house. But

when the safe house is attacked, he finds himself on the run with his charge.

Sources:
V: LUM1X
A: LittlebirD

Notes:
Video is good, there is some blank bits in the video !! around for 3 - 4

minutes...
audio is very good thnxs to littlebird !!
added a few filters to the video to make it look nice :P
take it or leave it

Greetz:
Xtreme

Encode|FYA|ILLUMANTI|CM8|RX|VISION|HDSCENE|NIGHTMAREZ|xTriLL|DTRG|CRYS|REMIXHD|BID

A|RX|REFILL|INSPiRAL|SIC|ZOMBIESZ|HOPE|Anonymous|GooN
To all the people who have helped me :P you know who you are

Anything to offer email us @: [email protected]
Video
ID : 0
Format : MPEG-4 Visual
Format profile : Advanced [email protected]
Format settings, BVOP : 2
Format settings, QPel : No
Format settings, GMC : No warppoints
Format settings, Matrix : Default (H.263)
Codec ID : XVID
Codec ID/Hint : XviD
Duration : 1h 44mn
Bit rate : 1 690 Kbps
Width : 720 pixels
Height : 272 pixels
Display aspect ratio : 2.647
Frame rate : 25.000 fps
Color space : YUV
Chroma subsampling : 4:2:0
Bit depth : 8 bits
Scan type : Progressive
Compression mode : Lossy
Bits/(Pixel*Frame) : 0.345
Stream size : 1.24 GiB (88%)
Writing library : XviD 64

Audio
ID : 1
Format : AC-3
Format/Info : Audio Coding 3
Mode extension : CM (complete main)
Codec ID : 2000
Duration : 1h 44mn
Source duration : 1h 44mn
Bit rate mode : Constant
Bit rate : 224 Kbps
Channel(s) : 2 channels
Channel positions : Front: L R
Sampling rate : 44.1 KHz
Bit depth : 16 bits
Compression mode : Lossy
Stream size : 168 MiB (12%)
Alignment : Aligned on interleaves
Interleave, duration : 35 ms (0.87 video frame)

[/code]
Screens:
http://i.imgur.com/Osdrs.png

http://i.imgur.com/rycdp.png

http://i.imgur.com/TTC9Z.png

http://i.imgur.com/Cb4lW.png

http://i.imgur.com/u7N2A.png

http://i.imgur.com/UjxU5.png

http://i.imgur.com/xZGkS.png

http://i.imgur.com/Mplno.png


Alternative screens:
http://www.hotimg.com/image/43wdrFW
http://dippic.com/u27cemvqwj4k
http://imgdepot.org/show/20120213/2/251337_vlcsnap_2012_02_13_17h37m45s189.png
http://www.imageporter.com/co36f5rpiede/vlcsnap-2012-02-13-17h38m10s171.png

http://img851.imageshack.us/img851/5503/26ks.jpg

Thank you smallz for banner!

Related torrents

Torrent NameAddedSizeSeedLeechHealth
1 Year+ - in Movies1.4 GB01
1 Year+ - in Movies1.4 GB00
1 Year+ - in Movies913.95 MB00
1 Year+ - in Movies913.95 MB3119
1 Year+ - in Movies1.37 GB00

Comments (0 Comments)




Please login or create a FREE account to post comments

Latest Searches

| Thater Glenn G | t I Jaime foxx | star trek online r d | Answering Okita Anzunashi | service pack windows 8 1 | 2pac george | Kamalesh DTRG | star trek voyager dvd iso | j okeefe | lady sonia undressed |