Quick Browse
Movies
TV shows
Music
Games
Applications
Anime
Other
Facebook
Advertising

Friends
Torrent Download
Movie4u
1337x.to
Torrent Downloads




Verified torrent Safe House 2012 TS V2 READNFO XviD AC3- 26K


    Seeders : 1      Leechers : 0
Hash :B5D17BA8BF8A5824FA667B9453ACD904EEBFBC3C
Added :1 Year+ by memory100Verified torrent uploader in Movies
Size :1.2 GB
Stream :WATCH ONLINE @ Movie4u


Safe House 2012 TS V2 READNFO XviD AC3- 26K
Free and Fast Download with Usenet 300GB+ free







Trackers List

Tracker NameLast CheckStatusSeedersLeechers




Torrent File Content (8 files)


Safe House 2012 TS V2 READNFO XviD AC3- 26K
     HDSceneRG.txt -
115 bytes

     Safe House 2012 TS V2 READNFO XviD AC3-26K.avi -
1.18 GB

     Safe House 2012 TS V2 READNFO XviD AC3-26K.nfo -
3.38 KB

     Torrent downloaded from Demonoid.me.txt -
46 bytes

     Torrent downloaded from rarbg.com.txt.txt -
0 bytes

     att-networks.com.txt -
39 bytes

     sample.avi -
26.47 MB

     sceneunderground.org.txt -
77 bytes



Description



http://img9.imageshack.us/img9/8772/safehousep.jpg

[code]
Safe House 2012 TS V2 READNFO XviD AC3-26K

Imdb:
http://www.imdb.com/title/tt1599348/

Plot:
A young CIA agent is tasked with looking after a fugitive in a safe house. But

when the safe house is attacked, he finds himself on the run with his charge.

Sources:
Video: inferno
Audio: Littlenbird
Subs: Sic

Notes:
FULL LINE!!! THNXS TO SIC FOR THE SUBS :p :) SO ENJOY ADDED A FEW FILTERS TO THE

VIDEO TO MAKE IT LOOK NICE :)

Greetz:
Xtreme

Encode|FYA|ILLUMANTI|CM8|RX|VISION|HDSCENE|NIGHTMAREZ|xTriLL|DTRG|CRYS|REMIXHD|BID

A|RX|REFILL|INSPiRAL|SIC|ZOMBIESZ|HOPE|Anonymous|GooN
To all the people who have helped me :P you know who you are

Anything to offer email us @: [email protected]

Video
ID : 0
Format : MPEG-4 Visual
Format profile : Advanced [email protected]
Format settings, BVOP : 2
Format settings, QPel : No
Format settings, GMC : No warppoints
Format settings, Matrix : Default (H.263)
Codec ID : XVID
Codec ID/Hint : XviD
Duration : 1h 49mn
Bit rate : 1 300 Kbps
Width : 720 pixels
Height : 252 pixels
Display aspect ratio : 2.857
Frame rate : 25.000 fps
Color space : YUV
Chroma subsampling : 4:2:0
Bit depth : 8 bits
Scan type : Progressive
Compression mode : Lossy
Bits/(Pixel*Frame) : 0.287
Stream size : 1 020 MiB (85%)
Writing library : XviD 64

Audio
ID : 1
Format : AC-3
Format/Info : Audio Coding 3
Mode extension : CM (complete main)
Codec ID : 2000
Duration : 1h 49mn
Source duration : 1h 49mn
Bit rate mode : Constant
Bit rate : 224 Kbps
Channel(s) : 2 channels
Channel positions : Front: L R
Sampling rate : 44.1 KHz
Bit depth : 16 bits
Compression mode : Lossy
Stream size : 176 MiB (15%)
Alignment : Aligned on interleaves
Interleave, duration : 35 ms (0.87 video frame)

[/code]
Screens:
http://i.imgur.com/seH7c.png

http://i.imgur.com/xdGyy.png

http://i.imgur.com/YNMps.png

http://i.imgur.com/9gTWz.png

http://img51.imageshack.us/img51/7941/vlcsnap2012021721h16m17.png

http://img823.imageshack.us/img823/2624/vlcsnap2012021721h16m08.png

http://img819.imageshack.us/img819/5549/vlcsnap2012021721h16m11.png

http://img705.imageshack.us/img705/5161/vlcsnap2012021721h16m14.png


Alternative screens:
http://www.hotimg.com/image/eM2ZggS
http://dippic.com/039ce0cqljws
http://imgdepot.org/show/20120217/2/443774_vlcsnap_2012_02_17_21h16m14s12.png
http://www.imageporter.com/00i8u8fzpreq/vlcsnap-2012-02-17-21h16m56s160.png

http://img851.imageshack.us/img851/5503/26ks.jpg

Thank you smallz for banner!

Related torrents

Torrent NameAddedSizeSeedLeechHealth
1 Year+ - in Movies1.36 GB00
1 Good
1 Year+ - in Movies1.38 GB1,413323
Verified torrent
1 Year+ - in Games901.87 MB9434
Verified torrent
1 Year+ - in Movies1.37 GB41048
1 Year+ - in Movies4.13 GB00

Comments (0 Comments)




Please login or create a FREE account to post comments

Latest Searches

| FAT JOE REMY MA All The Way Up | teen young threesome hd | conard f | fight night round 3 iso | one piece 1 767 | springsteen The wild the innocent | player way | Antz 1998 720p WEB DL x264 Eng Subs Dual Audio Hindi DD 2 0 | Lava Kusa 2015 x264 720p HDRiP Dual Audio Hindi DD 2 0 | like i m gonna lose you meghan trainor john legend |