Quick Browse
Movies
TV shows
Music
Games
Applications
Anime
Other
Facebook
Advertising

Friends
Torrent Download
Movie4u
1337x.to
Torrent Downloads




Verified torrent Salt (2010) DVDRip [Hindi+Eng] Dual.Audio


    Seeders : 72      Leechers : 10
Hash :3180E7B7C87A21EB99E0D7466E71EA90276BF1BE
Added :1 Year+ by mastitorrentsVerified torrent uploader in Movies
Size :500.96 MB
Stream :WATCH ONLINE @ Movie4u


Salt (2010) DVDRip [Hindi+Eng] Dual.Audio
Free and Fast Download with Usenet 300GB+ free







Trackers List

Tracker NameLast CheckStatusSeedersLeechers




Torrent File Content (3 files)


Salt (2010) DVDRip [Hindi+Eng] Dual.Audio(www.mastitorrents.com)
     Salt (2010) DVDRip [Hindi+Eng] Dual.Audio(www.mastitorrents.com).mkv -
497.46 MB

     Salt (2010) DVDRip [Hindi+Eng] Dual.Audio(www.mastitorrents.com)Sample.mkv -
3.49 MB

     Torrent Downloaded From www.mastitorrents.com.txt -
312 bytes



Description



[color=red][font=Georgia]General
Complete name : G:\Salt (2010) DVDRip [Hindi+Eng] Dual.Audio(www.mastitorrents.com).mkv
Format : Matroska
File size : 497 MiB
Duration : 1h 34mn
Overall bit rate : 735 Kbps
Encoded date : UTC 2010-08-26 23:23:28
Writing application : mkvmerge v3.2.0 ('Beginnings') built on Feb 12 2010 16:46:17
Writing library : libebml v0.7.9 + libmatroska v0.8.1

Video
ID : 1
Format : AVC
Format/Info : Advanced Video Codec
Format profile : [email protected]
Format settings, CABAC : Yes
Format settings, ReFrames : 8 frames
Muxing mode : Container [email protected]
Codec ID : V_MPEG4/ISO/AVC
Duration : 1h 34mn
Bit rate : 465 Kbps
Nominal bit rate : 500 Kbps
Width : 720 pixels
Height : 304 pixels
Display aspect ratio : 2.35:1
Frame rate : 24.000 fps
Original frame rate : 25.000 fps
Color space : YUV
Chroma subsampling : 4:2:0
Bit depth : 8 bits
Scan type : Progressive
Bits/(Pixel*Frame) : 0.088
Stream size : 314 MiB (63%)
Title : 300mbunited.com | rapidpremium.net
Writing library : x264 core 98 r1649 20cbe10
Language : English

Audio #1
ID : 2
Format : MPEG Audio
Format version : Version 1
Format profile : Layer 3
Codec ID : A_MPEG/L3
Codec ID/Hint : MP3
Duration : 1h 34mn
Bit rate mode : Constant
Bit rate : 128 Kbps
Channel(s) : 2 channels
Sampling rate : 44.1 KHz
Stream size : 86.6 MiB (17%)
Title : Hindi

Audio #2
ID : 3
Format : MPEG Audio
Format version : Version 1
Format profile : Layer 3
Codec ID : A_MPEG/L3
Codec ID/Hint : MP3
Duration : 1h 34mn
Bit rate mode : Constant
Bit rate : 128 Kbps
Channel(s) : 2 channels
Sampling rate : 48.0 KHz
Stream size : 86.6 MiB (17%)
Title : Eng
[/font][/color]

http://img689.imageshack.us/img689/3982/2hh40sl.jpg

http://img23.imageshack.us/img23/8770/2ihnntu.jpg

http://img831.imageshack.us/img831/7064/20z3f5v.jpg

http://img830.imageshack.us/img830/1926/25akubq.jpg

http://img198.imageshack.us/img198/5439/nq90kl.jpg


Related torrents

Torrent NameAddedSizeSeedLeechHealth
1 Year+ - in Movies672.95 MB00
1 Year+ - in Movies679.71 MB01
4 months ago - in Other674.73 MB00
Verified torrent
7 months ago - in Movies1016.57 MB398795
1 Year+ - in Movies399.7 MB10

Comments (0 Comments)




Please login or create a FREE account to post comments

Latest Searches

| oldje jessica malone | disney aladdin movies | bieber ellen | lifting ban | Molly 1999 rar | sorrows work | priya anjali rai jordan ash | list of most brilliant porn parodies of all time 34 movies | fap pack 3 evil beauty | iMPACT Wrestling 2012 08 16 HDTV XviD SER |