Quick Browse
Movies
TV shows
Music
Games
Applications
Anime
Other
Facebook
Friends
Torrent Download
Free Movies
1337x.to
Torrent Downloads

Verified torrent Salt Cam 2010 XvID FEEL-FREE - {XtremeTorrents}


    Seeders : 0      Leechers : 0
Hash :415A49DB8D48B9F9E36A559BA409C8F9C136242A
Added :1 Year+ by XtremeTorrentsVerified torrent uploader in Movies
Size :861.77 MB
Stream :Watch Full Movies Online @ Movie4u
Share :


Salt Cam 2010 XvID FEEL-FREE - {XtremeTorrents}
Anonymous and Direct Download 300GB+ free







Warning! Do not Download Torrents Without a VPN!
Your IP Address is .   And Location is
Your Internet Provider and Government can track your torrent Activity!  Hide your IP ADDRESS with a VPN!
We Strongly Recommend Using SpyOFF Torrent VPN to Anonymize your Torrenting. It's FREE For 15 Days!

Note :

Please Update (Trackers Info) Before Downloading Torrents to See Updated Seeders And Leechers for Batter Download Speed.

Trackers List

Tracker NameLast CheckStatusSeedersLeechers




Torrent File Content (4 files)


Salt.Cam.2010.XviD.FEEL-FREE
     Salt.Cam.2010.XviD.FEEL-FREE.avi -
861.32 MB

     salt-open-01.jpg -
363.74 KB

     Salt.Cam.2010.XviD.FEEL-FREE.avi_thumbs_[2010.07.26_20.40.44].jpg -
90.25 KB

     Salt.Cam.2010.XviD.FEEL-FREE.nfo -
2.16 KB



Description



http://screamingangie.com/wp/wp-content/uploads/2009/11/salt-open-01.jpg

................................................
Genre: Action | Thriller
Language:English
IMDb:http://www.imdb.com/title/tt0944835/
Source:Own/Hogs.Thanks
Encoder: Tony2
.................................................
General
Complete name : Salt.Cam.2010.XviD.FEEL-FREE
Format : AVI
Format/Info : Audio Video Interleave
File size : 861 MiB
Duration : 1h 32mn
Overall bit rate : 1 303 Kbps
..................................................
Video
Format : xvid
Codec ID : xvid
Duration : 1h 32mn
Bit rate : 1 161 Kbps
Width : 720 pixels
Height : 304 pixels
Display aspect ratio : 2.35:1
Frame rate : 30.000 fps
Resolution : 24 bits
Bits/(Pixel*Frame) : 0.177
Stream size : 768 MiB (89%)
...................................................
Audio
ID : 1
Format : MPEG Audio
Format version : Version 1
Format profile : Layer 3
Format settings, Mode : Joint stereo / MS Stereo
Codec ID : 55
Codec ID/Hint : MP3
Duration : 1h 32mn
Bit rate mode : Constant
Bit rate : 128 Kbps
Channel(s) : 2 channels
Sampling rate : 48.0 KHz
Resolution : 16 bits
Stream size : 84.6 MiB (10%)
Alignment : Aligned on interleaves
Interleave, duration : 24 ms (0.72 video frame)
Interleave, preload duration : 24 ms
...................................................
Plot:
As a CIA officer, Evelyn Salt swore an oath to duty, honor and country. Her loyalty will be tested when a defector accuses her of being a Russian spy
...................................................
Screens:
http://www.starshare.ro/bitbucket/Salt.Cam.2010.XviD.FEEL-FREE.avi_thumbs_%5B2010.07.26_20.40.44%5D.jpg

....................................................
XtremeTorrents Comment: Some people have said that ths copy is watchable, I suppose it depends on how much you want to see it and how picky you are, TS's will be out in the next few days, They should be slightly better, The best copy you are going to get if your picky is the R5 Release, But this is not due for a few months, It's up to you, I'll have a look around and see if there are other copies or any encodes, Still waiting for an Official release by PRISM OR IMAGINE which will be way better than this, Anyway it's here if you want it! Enjoy.
...............................................
Uploaders Quality Rating (Out Of 10) = Audio = 4 Video = 4
...............................................

Related torrents

Torrent NameAddedSizeSeedLeechHealth
1 Year+ - in Movies1.24 GB222
1 Year+ - in Movies750.08 MB8632
1 Year+ - in Movies1.19 GB00
1 Year+ - in Movies1.07 GB144
1 Year+ - in Movies1.03 GB5147

Comments (2 Comments)




candy96
» Downloaded this torrent Downloaded this torrent » Voted Good Voted Good for this torrent for this torrent
+1

Added 1 Year+
A watchable copy A10/V7 THANK U
gabriron01
» Downloaded this torrent Downloaded this torrent » Voted Bad Voted Bad for this torrent for this torrent

Added 1 Year+
Oh man!!! This is reaLLY Bag quality
Please login or create a FREE account to post comments

Latest Searches

| the flash spanish temporada 3 | moms bang s 10 | greys anatomy KILLERS ettv | Pirates of the Caribbean Dead Men Tell No Tales 2017 HDCAM V2 XviD UnKnOwN | precillia | Pirates of the Caribbean Dead Men Tell No Tales 2017 HDCAM V2 XviD UnKnOwN | my first sex milf | Flashdance dts | back to the future part 1985 | moms bang s 10 |