Quick Browse
Movies
TV shows
Music
Games
Applications
Anime
Other
Facebook
Advertising

Friends
Torrent Download
Movie4u
1337x.to
Torrent Downloads




Verified torrent Sanctum 2011 BRRip 720p XviD AC3-MXMG


    Seeders : 300      Leechers : 218
Hash :DBA4898333A6B8C9BC50272E629F035400A51F75
Added :1 Year+ by MXMGVerified torrent uploader in Movies
Size :1.44 GB
Stream :WATCH ONLINE @ Movie4u


Sanctum 2011 BRRip 720p XviD AC3-MXMG
Free and Fast Download with Usenet 300GB+ free







Trackers List

Tracker NameLast CheckStatusSeedersLeechers




Torrent File Content (6 files)


Sanctum 2011 BRRip 720p XviD AC3-MXMG
     Sanctum.avi -
1.44 GB

     Sanctum[subs]English.srt -
60.62 KB

     Sanctum[subs]Finnish.srt -
53.29 KB

     MXMG.nfo -
2 KB

     Torrent downloaded from Torrentstate.com.txt -
48 bytes

     Torrent downloaded from Demonoid.me.txt -
46 bytes



Description



http://img689.imageshack.us/img689/17/blankhu.png




General Information :
http://img39.imageshack.us/img39/4286/mxmg.jpg



Screens :
http://img703.imageshack.us/img703/6648/screenshot2011041706h12.png


http://img130.imageshack.us/img130/3716/screenshot2011041706h00.png


http://img855.imageshack.us/img855/7553/screenshot2011041706h01.png


http://img17.imageshack.us/img17/3583/screenshot2011041706h02.png


http://img863.imageshack.us/img863/7553/screenshot2011041706h01.png


http://img135.imageshack.us/img135/3583/screenshot2011041706h02.png




[quote]
# XVID 1.3.1 - Latest version used to optimize and deliver the Max Quality.
# All standalone DVD Players compatible. [HD]
# Also : PS3
XBOX 360
Popcorn Hour
Divx standalone player
WD TV HD media player


# MXMG ----- Single File\Extreme Quality\Limited Size\Fast Downloads
# It takes a longer time to encode to gain Max Quality and you know that you never get dissappointed
getting the MXMG Release.
[/quote]


[code]
Seedboxes provided by http://www.chociz.com/
A seedbox is a private dedicated server used for the uploading and downloading of digital files.
Speed - You can sit back, relax and watch in amazement at how fast the torrents finish.
Secure and Safe - With a seedbox, you don’t even need to use a BitTorrent client on your home computer!
Use Private Trackers - You can register @ Private Trackers and seed like Hell!

Get a Cheap Seedbox choosing for your taste - [url]http://www.chociz.com/whmcs/cart.php[/url]
[/code]



[quote]
Format : AVI
Format/Info : Audio Video Interleave
File size : 1.44 GiB
Duration : 1h 48mn
Overall bit rate : 1 891 Kbps
Writing application : VirtualDubMod 1.5.10.3 | www.virtualdub-fr.org || (build 2550/release)
Writing library : VirtualDubMod build 2550/release

Video
ID : 0
Format : MPEG-4 Visual
Format profile : Advanced [email protected]
Format settings, BVOP : 1
Format settings, QPel : No
Format settings, GMC : No warppoints
Format settings, Matrix : Default (H.263)
Codec ID : XVID
Codec ID/Hint : XviD
Duration : 1h 48mn
Bit rate : 1 498 Kbps
Width : 1 280 pixels
Height : 720 pixels
Display aspect ratio : 16:9
Frame rate : 23.976 fps
Color space : YUV
Chroma subsampling : 4:2:0
Bit depth : 8 bits
Scan type : Progressive
Compression mode : Lossy
Bits/(Pixel*Frame) : 0.068
Stream size : 1.14 GiB (79%)
Writing library : XviD 63

Audio
ID : 1
Format : AC-3
Format/Info : Audio Coding 3
Mode extension : CM (complete main)
Codec ID : 2000
Duration : 1h 48mn
Bit rate mode : Constant
Bit rate : 384 Kbps
Channel(s) : 6 channels
Channel positions : Front: L C R, Side: L R, LFE
Sampling rate : 48.0 KHz
Bit depth : 16 bits
Compression mode : Lossy
Stream size : 299 MiB (20%)
Alignment : Split accross interleaves
Interleave, duration : 42 ms (1.00 video frame)
Interleave, preload duration : 500 ms

[/quote]




Related torrents

Torrent NameAddedSizeSeedLeechHealth
Verified torrent
1 Year+ - in Movies1.25 GB11
Verified torrent
1 Year+ - in Movies1.48 GB5344
Verified torrent
1 Year+ - in Movies1.46 GB00
1 Year+ - in Movies2.58 GB227
1 Year+ - in Movies1.69 GB00

Comments (0 Comments)




Please login or create a FREE account to post comments

Latest Searches

| Orbital Wonky Deluxe Edition 2012 NewMp3Club | Carwash Day Bubble | oldman at the gym and fucks | Louies World | gucci mane brick i | The Godfather 1 BRRip TeJaS XpEnDaBlE a2zRG | Mr Robot PROPER HDTV x264 KILLERS | snl 12 4 | Star s02e14 | naked at home family |