Quick Browse
Movies
TV shows
Music
Games
Applications
Anime
Other
Facebook
Advertising

Friends
Torrent Download
Movie4u
1337x.to
Torrent Downloads




Verified torrent Saw 7 2010 CAM XviD-danytheone (NEW VIDEO SOURCE)


    Seeders : 46      Leechers : 10
Hash :A41949BE0EC827F2B2BEA2D2770BD1B20ADE4521
Added :1 Year+ by memory100Verified torrent uploader in Movies
Size :1.28 GB
Stream :WATCH ONLINE @ Movie4u


Saw 7 2010 CAM XviD-danytheone (NEW VIDEO SOURCE)
Free and Fast Download with Usenet 300GB+ free







Trackers List

Tracker NameLast CheckStatusSeedersLeechers




Torrent File Content (6 files)


Saw.7.2010.CAM.XviD-danytheone
     NW RG.nfo -
12.96 KB

     NW RG.txt -
126 bytes

     Pleas read!!!!.txt -
126 bytes

    SAMPLE
          SAMPLE-danytheone.avi -
34.12 MB

     Saw.7.2010.CAM.XviD-danytheone.avi -
1.25 GB

     danytheone.nfo -
2.06 KB



Description



http://img442.imageshack.us/img442/782/saw7asianposter.jpg

Info
[code]
Format: AVI
Format/Info: Audio Video Interleave - http://www.imdb.com/title/tt1477076/
File size: 1.25 GiB
Duration: 1h 23mn
Overall bit rate: 2 142 Kbps
Writing application: VirtualDubMod 1.5.10.2 (build 2540/release)
Writing library: VirtualDub build 32839/release

Video
Format: MPEG-4 Visual
Format profile: Streaming [email protected]
Format settings, BVOP: Yes
Format settings, QPel: No
Format settings, GMC: No warppoints
Format settings, Matrix: Custom
Codec ID: XVID
Codec ID/Hint: XviD
Duration: 1h 23mn
Bit rate: 2 004 Kbps
Width: 720 pixels
Height: 352 pixels
Display aspect ratio: 2.045
Frame rate: 25.000 fps
Resolution: 24 bits
Colorimetry: 4:2:0
Scan type: Progressive
Bits/(Pixel*Frame): 0.316
Stream size: 1.17 GiB (94%)
Writing library: XviD 1.2.1 (UTC 2008-12-04)

Audio
Format: MPEG Audio
Format version: Version 1
Format profile: Layer 3
Codec ID: 55
Codec ID/Hint: MP3
Duration: 1h 23mn
Bit rate mode: Constant
Bit rate: 128 Kbps
Channel(s): 2 channels
Sampling rate: 44.1 KHz
Resolution: 16 bits
Video delay: 26ms
Stream size: 76.6 MiB (6%)
Alignment: Split accross interleaves
Interleave, duration: 40 ms (1.00 video frame)
Interleave, preload duration: 500 ms
Audio : LKRG
Viedo: Russian
[/code]
Screens:
http://img714.imageshack.us/img714/9131/a6e6bb0615449077cfc83ef.png

http://img600.imageshack.us/img600/3426/b49ee6ae5fff01b3ad35ae5.png

http://img593.imageshack.us/img593/4263/e215c025706d72929400641.png


Related torrents

Torrent NameAddedSizeSeedLeechHealth
1 Year+ - in Movies1.28 GB143
1 Year+ - in Movies1.4 GB291246
1 Year+ - in Movies694.19 MB562235
1 Year+ - in Movies777.57 MB494203
1 Year+ - in Movies777.56 MB2810

Comments (0 Comments)




Please login or create a FREE account to post comments

Latest Searches

| Miss Peregrine Home for Peculiar Children 2016 | Rad 1986 HDRip XviD AC3 KINGDOM avi | the killer inside me 2010 1080p bluray x264 dts fgt | dance texas | mary j b thick | tre | ambient zone | ShemaleJapanHardcore Exclusive Uta | tre | america america 1963 720p |