Quick Browse
Movies
TV shows
Music
Games
Applications
Anime
Other

Donate and Support

Friends
Torrents.me
Torrent Download
Free Movies
1337x
RARBG
Torrent Downloads

Scratch - [Bagland] - Denmark Movie - 2003 - TVRip - WS - XViD-Greekadiko.biz Release - English Subtitles


    Seeders : 0      Leechers : 0

Warning! Do not Download Torrents Without a VPN!
Your IP Address is .   And Location is
Your Internet Provider and Government can track your torrent Activity!  Hide your IP ADDRESS with a VPN!
We Strongly Recommend Using SpyOFF Torrent VPN to Anonymize your Torrenting. It's FREE For 15 Days!

Note :

Please Update (Trackers Info) Before Downloading Torrents to See Updated Seeders And Leechers for Batter Download Speed.

Trackers List

Tracker NameLast CheckStatusSeedersLeechers




Torrent File Content (8 files)


Scratch
     Scratch.avi -
707.16 MB

     Scratch_1.jpg -
32.41 KB

     Scratch_7.jpg -
25.15 KB

     Scratch_5.jpg -
22.43 KB

     Scratch_6.jpg -
17.11 KB

     Scratch_3.jpg -
14.15 KB

     Scratch_4.jpg -
12.39 KB

     Scratch_2.jpg -
11.39 KB



Description



General
Complete name : Scratch.avi
Format : AVI
Format/Info : Audio Video Interleave
File size : 707 MiB
Duration : 1h 16mn
Overall bit rate : 1 294 Kbps
Writing application : VirtualDubMod 1.5.4.1 (build 2178/release)
Writing library : VirtualDubMod build 2178/release

Video
ID : 0
Format : MPEG-4 Visual
Format profile : Streaming [email protected]
Format settings, BVOP : Yes
Format settings, QPel : No
Format settings, GMC : No warppoints
Format settings, Matrix : Default (H.263)
Muxing mode : Packed bitstream
Codec ID : XVID
Codec ID/Hint : XviD
Duration : 1h 16mn
Bit rate : 1 174 Kbps
Width : 720 pixels
Height : 288 pixels
Display aspect ratio : 2.500
Frame rate : 29.970 fps
Resolution : 24 bits
Colorimetry : 4:2:0
Scan type : Progressive
Bits/(Pixel*Frame) : 0.189
Stream size : 642 MiB (91%)
Writing library : XviD 1.2.1 (UTC 2008-12-04)

Audio
ID : 1
Format : MPEG Audio
Format version : Version 1
Format profile : Layer 3
Codec ID : 55
Codec ID/Hint : MP3
Duration : 1h 16mn
Bit rate mode : Variable
Bit rate : 106 Kbps
Nominal bit rate : 128 Kbps
Channel(s) : 2 channels
Sampling rate : 48.0 KHz
Resolution : 16 bits
Stream size : 57.9 MiB (8%)
Alignment : Aligned on interleaves
Interleave, duration : 24 ms (0.72 video frame)
Interleave, preload duration : 482 ms
Writing library : LAME3.98r
Encoding settings : -m j -V 4 -q 2 -lowpass 17 --abr 128





Screenshots:

http://i49.tinypic.com/2im5qw3.jpg


http://i45.tinypic.com/2nlw93.jpg


http://i49.tinypic.com/2gx1xxz.jpg


http://i47.tinypic.com/23v19qu.jpg


http://i49.tinypic.com/21n13bq.jpg

Related torrents

Torrent NameAddedSizeSeedLeechHealth
1 Year+ - in Movies699.68 MB21
1 Year+ - in Movies676.86 MB10
1 Year+ - in Movies710.01 MB00
1 Year+ - in Movies739.46 MB11
1 Year+ - in Movies642.17 MB10

Comments (0 Comments)




Please login or create a FREE account to post comments

Latest Searches

| wwe 205 live 7 25 2017 | one piece season 1 480p eng | alexis seduced cougar | maluma g | s01e08 factor fear | Continuum s04e04 Zero Hour HDTV | factor s01e07 fear | factor s01e06 fear | asian dorm sex | teamphoneix visible thought new psychology of body language read desc |