Quick Browse
Movies
TV shows
Music
Games
Applications
Anime
Other
Facebook
Advertising

Friends
Torrent Download
Movie4u
1337x.to
Torrent Downloads




Verified torrent Scream 4 2011 TS V2 READNFO XViD - IMAGiNE [NO RAR]


    Seeders : 138      Leechers : 64
Hash :2C6BC6A056CD26AE1897A69E84F92A21D359BB9D
Added :1 Year+ by memory100Verified torrent uploader in Movies
Size :1.39 GB
Stream :WATCH ONLINE @ Movie4u


Scream 4 2011 TS V2 READNFO XViD - IMAGiNE [NO RAR]
Free and Fast Download with Usenet 300GB+ free







Trackers List

Tracker NameLast CheckStatusSeedersLeechers




Torrent File Content (9 files)


Scream 4 2011 TS V2 READNFO XViD - IMAGiNE
     Budget seedboxs.txt -
44 bytes

     NW RG.nfo -
12.96 KB

     Scream 4 2011 TS V2 READNFO XViD - IMAGiNE SAMPLE.avi -
22.11 MB

     Scream 4 2011 TS V2 READNFO XViD - IMAGiNE.avi -
1.37 GB

     Scream 4 2011 TS V2 READNFO XViD - IMAGiNE.nfo -
5.14 KB

     Torrent downloaded from Demonoid.me.txt -
46 bytes

     northernwarriors.net.txt -
135 bytes

     sceneunderground.org.txt -
77 bytes

     visiontracker.net.txt -
91 bytes



Description



http://img810.imageshack.us/img810/5290/posterii.jpg


[code]
Scream 4 2011 TS V2 READNFO XViD - IMAGiNE

Ripper ...........: IMAGiNE IMDB Rating.......:7.5/10
Video Codec.......: XVID Release Date......:18/04/11
Audio Codec.......:MP3 Theatre Date......:15/04/11
Audio Bitrate.....:128 Runtime.......:1h 20mn
Subtitles.........:NIL Language..........:ENGLISH
Resolution...... 720 x 304 IMDb URL.......... http://www.imdb.com/title/tt1262416/

DETAILS:

Video
ID : 0
Format : MPEG-4 Visual
Format profile : Advanced [email protected]
Format settings, BVOP : 2
Format settings, QPel : No
Format settings, GMC : No warppoints
Format settings, Matrix : Default (MPEG)
Muxing mode : Packed bitstream
Codec ID : XVID
Codec ID/Hint : XviD
Duration : 1h 43mn
Bit rate : 1 762 Kbps
Width : 720 pixels
Height : 304 pixels
Display aspect ratio : 2.35:1
Frame rate : 25.000 fps
Color space : YUV
Chroma subsampling : 4:2:0
Bit depth : 8 bits
Scan type : Progressive
Compression mode : Lossy
Bits/(Pixel*Frame) : 0.322
Stream size : 1.27 GiB (93%)
Writing library : XviD 61

Audio
ID : 1
Format : MPEG Audio
Format version : Version 1
Format profile : Layer 3
Mode : Joint stereo
Mode extension : MS Stereo
Codec ID : 55
Codec ID/Hint : MP3
Duration : 1h 43mn
Bit rate mode : Constant
Bit rate : 128 Kbps
Channel(s) : 2 channels
Sampling rate : 44.1 KHz
Compression mode : Lossy
Stream size : 94.6 MiB (7%)
Alignment : Split accross interleaves
Interleave, duration : 40 ms (1.00 video frame)


SOURCES:
VIDEO:...... ADDiCTED Thanx
AUDIO:...... Thanx mate

NOTES:
IMAGiNE bringing you another release..........

Scream 4 Version 2........

Ok now here we are with V2 of Scream 4, thanx to ADDiCTED for sending us the source files which were very nice to begin with........

So we straightened the video out as it was shot at an angle, then cropped and resized.......

wrote up a script to sharpen, level out the brightness and yada yada Audio is same LiNE from V1 filtered synced and muxed to our encode....
Overall a very nice release here if we may say so ourselfs

Enjoy Folks
[/code]
Screens:
http://img813.imageshack.us/img813/8287/14632241.jpg

http://img842.imageshack.us/img842/8185/85227760.jpg

http://img857.imageshack.us/img857/8247/97129833.jpg

http://img140.imageshack.us/img140/173/12928136.jpg

http://img848.imageshack.us/img848/425/77824511.jpg

http://img194.imageshack.us/img194/5923/69483427.jpg

http://img706.imageshack.us/img706/1792/34231143.jpg

Related torrents

Torrent NameAddedSizeSeedLeechHealth
1 Year+ - in Movies1.39 GB69145
1 Year+ - in Movies1.39 GB15163
1 Year+ - in Movies1.39 GB02
1 Year+ - in Movies1.39 GB16
1 Year+ - in Movies1.39 GB01

Comments (0 Comments)




Please login or create a FREE account to post comments

Latest Searches

| kylie minogue snow queen edition | tyga 3 T C | colors tv | dora and friends puppy princess | s01e10 pitch | distretto di polizia 1 completo | udey | im going down | gushes cum | MATLAB R2016b 9 1 0 MAC |