Quick Browse
Movies
TV shows
Music
Games
Applications
Anime
Other
Facebook
Advertising

Friends
Torrent Download
Movie4u
1337x.to
Torrent Downloads




Verified torrent Scream 4 2011 TS XVID AC3 HQ Hive-CM8


    Seeders : 1      Leechers : 0
Hash :B69DACE476215BD3A51CFC165EF28C5B98BE9F9B
Added :1 Year+ by striker123Verified torrent uploader in
Size :1.5 GB
Stream :WATCH ONLINE @ Movie4u


Scream 4 2011 TS XVID AC3 HQ Hive-CM8
Free and Fast Download with Usenet 300GB+ free







Trackers List

Tracker NameLast CheckStatusSeedersLeechers




Torrent File Content (4 files)


Scream.4.2011.TS.XVID.AC3.HQ.Hive-CM8
     Scream.4.2011.TS.XVID.AC3.HQ.Hive-CM8.avi -
1.49 GB

     Scream.4.2011.TS.XVID.AC3.HQ.Hive-CM8.nfo -
4.03 KB

     sample.avi -
5.43 MB

     www.warezboyz.com.txt -
0 bytes



Description



http://img96.imageshack.us/img96/797/scream4poster02.jpg


[code]
Scream.4.2011.TS.XVID.AC3.HQ.Hive-CM8 Thx Hive
CM8 Doing It Right The First Time

Source: Great new Video from Russian Site, its almost DVD-Quality Thx
Audio: Imagines Line-Audio Thx
Encode: corrected the Aspect, fixed rgb, corrected some overcontrasting,sharpened it and cleaned the audio
And I finally synced the imagine ts audio to the avi, yes its lipsync )
Video: 720x296 @bitrate 1800 2pass
Audio: English AC3 2.0 Stereo
Sample: yes included http://www.imdb.com/title/tt1262416/

General
Complete name: Scream.4.2011.TS.XVID.AC3.HQ.Hive-CM8.avi
Format: AVI
Format/Info: Audio Video Interleave
File size: 1.49 GiB
Duration: 1h 43mn
Overall bit rate: 2 066 Kbps
Writing application: Nandub v1.0rc2
Writing library: Nandub build 1853/release

Video
ID: 0
Format: MPEG-4 Visual
Format profile: Advanced [email protected]
Format settings, BVOP: Yes
Format settings, QPel: Yes
Format settings, GMC: No warppoints
Format settings, Matrix: Default (H.263)
Muxing mode: Packed bitstream
Codec ID: XVID
Codec ID/Hint: XviD
Duration: 1h 43mn
Bit rate: 1 800 Kbps
Width: 720 pixels
Height: 296 pixels
Display aspect ratio: 2.40:1
Frame rate: 25.000 fps
Color space: YUV
Chroma subsampling: 4:2:0
Bit depth: 8 bits
Scan type: Progressive
Bits/(Pixel*Frame): 0.338
Stream size: 1.30 GiB (87%)
Writing library: XviD 1.2.1 (UTC 2008-12-04)

Audio
ID: 1
Format: AC-3
Format/Info: Audio Coding 3
Mode extension: CM (complete main)
Codec ID: 2000
Duration: 1h 43mn
Bit rate mode: Constant
Bit rate: 256 Kbps
Channel(s): 2 channels
Channel positions: Front: L R
Sampling rate: 48.0 KHz
Bit depth: 16 bits
Stream size: 189 MiB (12%)
Alignment: Split accross interleaves
Interleave, duration: 40 ms (1.00 video frame)
Interleave, preload duration: 500 ms

Lucy Hale ... Sherrie
Shenae Grimes ... Trudie
Anna Paquin ... Rachel
Kristen Bell ... Chloe
Aimee Teegarden ... Jenny Randall
Brittany Robertson ... Marnie Cooper
Neve Campbell ... Sidney Prescott
Alison Brie ... Rebecca Walters
David Arquette ... Dewey Riley
Courteney Cox ... Gale Weathers-Riley
Hayden Panettiere ... Kirby Reed
Emma Roberts ... Jill Roberts
Marielle Jaffe ... Olivia Morris

Ten years have passed, and Sidney Prescott, who has put herself back
together thanks in part to her writing, is visited by the Ghostface Killer


[/code]

http://img861.imageshack.us/img861/1772/scsct.png

http://img535.imageshack.us/img535/7395/scscsc.png

http://img847.imageshack.us/img847/7973/scscscsc.png

http://img98.imageshack.us/img98/1827/scscscscscscsc.png

Related torrents

Torrent NameAddedSizeSeedLeechHealth
1 Year+ - in Movies1.5 GB51350
Verified torrent
1 Year+ - in Movies1.5 GB10
1 Year+ - in Movies1.5 GB00
1 Year+ - in Movies1.5 GB379
1 Year+ - in Movies1.76 GB00

Comments (0 Comments)




Please login or create a FREE account to post comments

Latest Searches

| Ff epub j m dragon | I Became My Bosss Mistress 2016 | housewife dominates her sub | new age rb | Cafe Del Mar Jazz 4 | jellyroll welcome | cold war kids war | Jennifer im real | epic summer | Top 100 90 s Flac |