Quick Browse
Movies
TV shows
Music
Games
Applications
Anime
Other
Facebook
Advertising

Friends
Torrent Download
Movie4u
1337x.to
Torrent Downloads




Verified torrent Scream 4 720p TS XViD - IMAGiNE


    Seeders : 4      Leechers : 222
Hash :10AFAECC18C50FB70ABFF2F2629F7A3585BA028E
Added :1 Year+ by memory100Verified torrent uploader in Movies
Size :4.61 GB
Stream :WATCH ONLINE @ Movie4u


Scream 4 720p TS XViD - IMAGiNE
Free and Fast Download with Usenet 300GB+ free







Trackers List

Tracker NameLast CheckStatusSeedersLeechers




Torrent File Content (9 files)


Scream 4 720p TS XViD - IMAGiNE
     Budget seedboxs.txt -
44 bytes

     NW RG.nfo -
12.96 KB

     Scream 4 720p TS XViD - IMAGiNE.avi -
4.54 GB

     Scream 4 720p TS XViD - IMAGiNE.nfo -
5.49 KB

     Scream 4 720p TS XViD - SAMPLE.avi -
74.13 MB

     Torrent downloaded from Demonoid.me.txt -
46 bytes

     northernwarriors.net.txt -
135 bytes

     sceneunderground.org.txt -
77 bytes

     visiontracker.net.txt -
91 bytes



Description



http://img810.imageshack.us/img810/5290/posterii.jpg

[CODE]
Scream 4 720p TS XViD - IMAGiNE

Ripper ..........: IMAGiNE IMDB Rating.......:7.5/10
Video Codec.......: XVID Release Date......:18/04/11
Audio Codec.......:MP3 Theatre Date......:15/04/11
Audio Bitrate.....:128 Runtime.......:1h 43mn
Subtitles.........:NIL Language..........:ENGLISH
Resolution...... 1280 x 544 IMDb URL.......... http://www.imdb.com/title/tt1262416/


DETAILS:

Video
ID : 0
Format : MPEG-4 Visual
Format profile : Advanced [email protected]
Format settings, BVOP : 2
Format settings, QPel : No
Format settings, GMC : No warppoints
Format settings, Matrix : Default (MPEG)
Muxing mode : Packed bitstream
Codec ID : XVID
Codec ID/Hint : XviD
Duration : 1h 43mn
Bit rate : 6 151 Kbps
Width : 1 280 pixels
Height : 544 pixels
Display aspect ratio : 2.35:1
Frame rate : 25.000 fps
Color space : YUV
Chroma subsampling : 4:2:0
Bit depth : 8 bits
Scan type : Progressive
Compression mode : Lossy
Bits/(Pixel*Frame) : 0.353
Stream size : 4.44 GiB (98%)
Writing library : XviD 61

Audio
ID : 1
Format : MPEG Audio
Format version : Version 1
Format profile : Layer 3
Mode : Joint stereo
Mode extension : MS Stereo
Codec ID : 55
Codec ID/Hint : MP3
Duration : 1h 43mn
Bit rate mode : Constant
Bit rate : 128 Kbps
Channel(s) : 2 channels
Sampling rate : 44.1 KHz
Compression mode : Lossy
Stream size : 94.6 MiB (2%)
Alignment : Split accross interleaves
Interleave, duration : 40 ms (1.00 video frame)
Interleave, preload duration : 500 ms

PLOT:Ten years have passed, and Sidney Prescott, who has put herself back together thanks in part to her writing, is visited by the Ghostface Killer.

SOURCES:
VIDEO:scream 4 720p ADDiCTED .... Many Thanks Guys
AUDIO:Thanks m8ty

NOTES:

IMAGiNE bringing you another release..........Scream 4 720p

Here we go with a decent 720p TS.....same source as our 720x rip but this time no resizing,just cleaned up video.

Source for a cam is mint ...no to ways about it.However it was cammed at a angle and also needed some TLC.

So pulled the video straight and cropped any unwanted borders,also had to deinterlace it and then fix brightness,contrast,Chroma and sharpness.
Audio same as before,cut,filtered,synced and then remuxed.

Some will say why??WTF a 720p TS ...blah blah blah ..but what can i say "go fuck yourselfs" sounds about right to us All of the highest quailty cams come in a 720,1080 formats and weight in about 7 -16 gig in size.It means when you get a release like this your getting closer to the source files ....hence better viewing.
So if you think 720p ts's are a joke....jog on and move onto something you want.
For the rest ( with brains ) Enjoy Folks
[/CODE]
Screens:
http://img43.imageshack.us/img43/4795/88104417.jpg

http://img862.imageshack.us/img862/735/89938250.jpg

http://img859.imageshack.us/img859/369/12049973.jpg

http://img849.imageshack.us/img849/2180/45024673.jpg

Related torrents

Torrent NameAddedSizeSeedLeechHealth
1 Year+ - in Movies771.49 MB00
1 Year+ - in Movies762.74 MB10
1 Year+ - in Movies745.23 MB11
1 Year+ - in Movies2.36 GB02
1 Year+ - in TV shows2.36 GB00

Comments (0 Comments)




Please login or create a FREE account to post comments

Latest Searches

| jay z american gangster | Kink University KU 39312 Bella Rossi and Owen Gray Med Hi HD | SwallowSalon Rayna Rose | AC DC Fly On The Soundboard 2 CD 1985 ak320 | MCCE 1 | catalyst 2014 09 18 extra testosterone ldtv webrip | Alex Newell All Cried Out | FantasyMassage Karlie Montana Elle Alexandra Red On Red 16 07 2016 | fakings sarita | A Good Lawyers Wife 2003 |