Quick Browse
Movies
TV shows
Music
Games
Applications
Anime
Other
Facebook
Friends
Torrent Download
Movie4u
1337x.to
Torrent Downloads

Verified torrent Seeking Justice 2011 R3 DVDRip XviD AC3-26K


    Seeders : 0      Leechers : 0
Hash :132E1278E880AA757FB4CE504DDECD69269977EB
Added :1 Year+ by memory100Verified torrent uploader in Movies
Size :1.65 GB
Stream :WATCH ONLINE @ Movie4u


Seeking Justice 2011 R3 DVDRip XviD AC3-26K
Anonymous and Direct Download 300GB+ free








Trackers List

Tracker NameLast CheckStatusSeedersLeechers




Torrent File Content (8 files)


Seeking Justice 2011 R3 DVDRip XviD AC3-26K
     HDSceneRG.txt -
115 bytes

     Seeking Justice 2011 R3 DVDRip XviD AC3-26K.avi -
1.61 GB

     Seeking Justice 2011 R3 DVDRip XviD AC3-26K.nfo -
3.49 KB

    Subs
          English.srt -
70.22 KB

     Torrent downloaded from Demonoid.me.txt -
46 bytes

     att-networks.com.txt -
39 bytes

     sample.avi -
47.25 MB

     sceneunderground.org.txt -
77 bytes



Description



http://img593.imageshack.us/img593/5549/seeking.gif

[code]
Seeking Justice 2011 R3 DVDRip XviD AC3-26K

Imdb:
http://www.imdb.com/title/tt1214962/

Plot:
After his wife is assaulted, a husband enlists the services of a vigilante group to help him settle the

score.

Sources:
DVDR VOBS THNXS FOR THEM M8 YOU ROCK

Notes:
THE DVDR HAD THIA AUDIO AS WELL AS ENGLISH AUDIO :) subs can be found in the subs folder!... so enjoy

this R3 region which is asia dvd region code...
added a few filters to video so enjoy.!

Greetz:
Xtreme

Encode|FYA|ILLUMANTI|CM8|RX|VISION|HDSCENE|NIGHTMAREZ|xTriLL|DTRG|CRYS|REMIXHD|BIDA|RX|REFILL|INSPiRAL|S

IC|ZOMBIESZ|HOPE|Anonymous
To all the people who have helped me :P you know who you are

Anything to offer email us @: [email protected]

Video
ID : 0
Format : MPEG-4 Visual
Format profile : Advanced [email protected]
Format settings, BVOP : 2
Format settings, QPel : No
Format settings, GMC : No warppoints
Format settings, Matrix : Default (H.263)
Muxing mode : Packed bitstream
Codec ID : XVID
Codec ID/Hint : XviD
Duration : 1h 44mn
Bit rate : 1 799 Kbps
Width : 720 pixels
Height : 408 pixels
Display aspect ratio : 16:9
Frame rate : 29.970 fps
Color space : YUV
Chroma subsampling : 4:2:0
Bit depth : 8 bits
Scan type : Progressive
Compression mode : Lossy
Bits/(Pixel*Frame) : 0.204
Stream size : 1.32 GiB (82%)
Writing library : XviD 1.2.1 (UTC 2008-12-04)

Audio
ID : 1
Format : AC-3
Format/Info : Audio Coding 3
Mode extension : CM (complete main)
Codec ID : 2000
Duration : 1h 44mn
Bit rate mode : Constant
Bit rate : 384 Kbps
Channel(s) : 6 channels
Channel positions : Front: L C R, Side: L R, LFE
Sampling rate : 48.0 KHz
Bit depth : 16 bits
Compression mode : Lossy
Stream size : 288 MiB (17%)
Alignment : Aligned on interleaves
Interleave, duration : 32 ms (0.96 video frame)
Interleave, preload duration : 32 ms

[/code]
Screens:
http://img513.imageshack.us/img513/889/vlcsnap2012012121h15m49.png

http://img819.imageshack.us/img819/6559/vlcsnap2012012121h15m55.png

http://img685.imageshack.us/img685/4341/vlcsnap2012012121h16m02.png

http://img577.imageshack.us/img577/1627/vlcsnap2012012121h16m08.png

http://img593.imageshack.us/img593/1378/vlcsnap2012012121h16m24.png


http://img851.imageshack.us/img851/5503/26ks.jpg

Thank you smallz for banner!

Related torrents

Torrent NameAddedSizeSeedLeechHealth
1 Year+ - in Movies1.47 GB02
1 Year+ - in Movies1.47 GB17
1 Year+ - in Movies1.47 GB00
1 Year+ - in Movies1.47 GB29
1 Year+ - in Movies1.69 GB00

Comments (0 Comments)




Please login or create a FREE account to post comments

Latest Searches

| Venus hevc | 2nd Season 1 | jimmy scott | Latin a porn | Your Cock Is Better | The Inspectors Are Coming s01e03 EN SUB WEBRIP MPup | ExposedCasting Barbara Bieber | HEVC Season The Walking Dead | black big black cock | Elizabeth and dick |