Quick Browse
Movies
TV shows
Music
Games
Applications
Anime
Other
Facebook
Advertising

Friends
Torrent Download
Movie4u
1337x.to
Torrent Downloads




Verified torrent Sex & Drugs & Rock & Roll


    Seeders : 0      Leechers : 0
Hash :E0FD090E717DF66FCA49BECDD0172EEE5BCC5202
Added :1 Year+ by HannspreeVerified torrent uploader in Movies
Size :2.25 GB
Stream :WATCH ONLINE @ Movie4u


Sex & Drugs & Rock & Roll
Free and Fast Download with Usenet 300GB+ free







Trackers List

Tracker NameLast CheckStatusSeedersLeechers




Torrent File Content (9 files)


Sex & Drugs & Rock & Roll
    VIDEO_TS
          VTS_01_2.VOB -
1023.97 MB

          VTS_01_1.VOB -
1023.97 MB

          VTS_01_3.VOB -
250.79 MB

          VTS_01_0.BUP -
74 KB

          VTS_01_0.IFO -
74 KB

          VIDEO_TS.VOB -
58 KB

          VTS_01_0.VOB -
58 KB

          VIDEO_TS.IFO -
12 KB

          VIDEO_TS.BUP -
12 KB



Description



====================================================================================================
A free ready made DVD movie from Hannspree - More will follow soon.
Please do be patient
====================================================================================================
This high quality DVD movie is already converted and ready for you to burn to a DVD disc
====================================================================================================
Movie Desc:

A biography of Ian Dury who was stricken with polio at a young age and defied
expectations by becoming one of the founder of the punk-rock scene in Britain in the 1970s
====================================================================================================
Movie Specs:

GENERAL:
Complete name : Sex & Drugs & Rock & Roll
Format : MPEG-PS
File size : 2.24 GB
Duration : 111 Minutes
Overall bit rate : 2 731 Kbps

Video:
ID : 224 (0xE0)
Format : MPEG Video
Format version : Version 2
Format profile : [email protected]
Format settings, BVOP : Yes
Format settings, Matrix : Default
Duration : 111 Minutes
Bit rate mode : Variable
Bit rate : 2 484 Kbps
Nominal bit rate : 9 608 Kbps
Width : 720 pixels
Height : 576 pixels
Display aspect ratio : 16:9
Frame rate : 25.000 fps
Standard : PAL
Color space : YUV
Chroma subsampling : 4:2:0
Bit depth : 8 bits
Scan type : Progressive
Bits/(Pixel*Frame) : 0.240
Stream size : 932 MiB (91%)

Audio:
ID : 128 (0x80)
Format : AC-3
Format/Info : Audio Coding 3
Mode extension : CM (complete main)
Duration : 111 Minutes
Bit rate mode : Constant
Bit rate : 192 Kbps
Channel(s) : 2 channels
Channel positions : Front: L R
Sampling rate : 48.0 KHz
Stream size : 72.0 MiB (7%)
====================================================================================================
Stream:

Video: MPEG2 Video 720x576 (16:9) [Video]
Audio: Dolby AC3 48000Hz stereo [AC3]
====================================================================================================
Movie File Size:

2.24 GB (2,410,690,560 bytes)
====================================================================================================
Contains:

9 Files in 2 Folders (VIDEO_TS & AUDIO_TS)
====================================================================================================
IMDB Link:

http://www.imdb.com/title/tt1393020/
====================================================================================================
Free high quality ready to burn DVD movies from Hannspree
====================================================================================================

Related torrents

Torrent NameAddedSizeSeedLeechHealth
10 months ago - in Other137.32 MB00
1 Year+ - in TV shows3.42 GB5335
1 Year+ - in TV shows8.31 GB00
1 Year+ - in TV shows6.65 GB00
1 Year+ - in TV shows2.73 GB00
1 Year+ - in TV shows2.35 GB00

Comments (0 Comments)




Please login or create a FREE account to post comments

Latest Searches

| Fire and The Flood Vance Joy | moveif you wanna | chris kontakt | Blake Eden Marley Brinx | Chance S01E08 webrip x264 | HIP HOP | tom and jerry games | helen harper highland magic | defiance burial | Dirk Gentlys Holistic Detective Agency S01E06 720p HDTV x264 FLEETPRiME |