Quick Browse
Movies
TV shows
Music
Games
Applications
Anime
Other
Facebook
Friends
Torrent Download
Free Movies
1337x.to
Torrent Downloads

Verified torrent Sex Pot R5 AC3 XViD - IMAGiNE - {XtremeTorrents}


    Seeders : 8      Leechers : 8
Hash :95683E61D8073DA58D4EADC1F788DDACCE02C815
Added :1 Year+ by XtremeTorrentsVerified torrent uploader in Movies
Size :1.41 GB
Stream :Watch Full Movies Online @ Movie4u
Share :


Sex Pot R5 AC3 XViD - IMAGiNE - {XtremeTorrents}
Anonymous and Direct Download 300GB+ free







Warning! Do not Download Torrents Without a VPN!
Your IP Address is .   And Location is
Your Internet Provider and Government can track your torrent Activity!  Hide your IP ADDRESS with a VPN!
We Strongly Recommend Using OneVPN’s Torrent VPN to Anonymize your Torrenting. It's Very Cheap!

Note :

Please Update (Trackers Info) Before Downloading Torrents to See Updated Seeders And Leechers for Batter Download Speed.

Trackers List

Tracker NameLast CheckStatusSeedersLeechers




Torrent File Content (7 files)


Sex Pot R5 AC3 XViD - IMAGiNE
     NW RG.nfo -
12.96 KB

     NW RG.txt -
127 bytes

     Sex Pot R5 AC3 XViD - IMAGiNE SAMPLE.avi -
26.12 MB

     Sex Pot R5 AC3 XViD - IMAGiNE.NFO -
4.73 KB

     Sex Pot R5 AC3 XViD - IMAGiNE.avi -
1.38 GB

     Torrent downloaded from Demonoid.com.txt -
47 bytes

     bsbt.nfo -
5.75 KB



Description



http://www.theasylum.cc/images/posters/sexpot2D_large.jpg

[CODE]
Sex Pot R5 AC3 XViD - IMAGiNE
********************************************************************************************************************

Ripper ...........:IMAGiNE IMDB Rating.......:3.0/10
Video Codec.......:XViD Release Date......:07/23/10
Audio Codec.......:AC3 Theatre Date......:08/18/09
Audio Bitrate.....:192 Runtime...........:1h 31mn
Subtitles.........:NIL Language..........:ENGLISH
Resolution........:720 x 400 IMDb URL..........:http://www.imdb.com/title/tt1473801/


DETAILS:

Video
Format : MPEG-4 Visual
Format profile : Streaming [email protected]
Format settings, BVOP : Yes
Format settings, QPel : No
Format settings, GMC : No warppoints
Format settings, Matrix : Default
Muxing mode : Packed bitstream
Codec ID : XVID
Codec ID/Hint : XviD
Duration : 1h 31mn
Bit rate : 1 945 Kbps
Width : 720 pixels
Height : 400 pixels
Display aspect ratio : 16/9
Frame rate : 25.000 fps
Resolution : 24 bits
Colorimetry : 4:2:0
Scan type : Progressive
Bits/(Pixel*Frame) : 0.270
Stream size : 1.25 GiB (91%)
Writing library : XviD 50

Audio
Format : AC-3
Format/Info : Audio Coding 3
Codec ID : 2000
Duration : 1h 31mn
Bit rate mode : Constant
Bit rate : 192 Kbps
Channel(s) : 2 channels
Channel positions : L R
Sampling rate : 48.0 KHz
Stream size : 126 MiB (9%)
Alignment : Aligned on interleaves
Interleave, duration : 40 ms (1.00 video frame)
Interleave, preload duration : 512 ms



NOTES:

IMAGiNE bringing you another release..... Sex Pot 2009

Thanks go out to ELEKTRI4KA for the files...
Here we go with an R5 DVDRip of Sex Pot. We noticed there had not
been a rip of this yet and thought some might want one.
Work done was we balanced the white then on to the colors which there
was to much yellow so we lowered that. Also we had to crop and resize
as well as adjust to contrast, brightness and applied a sharpening filter.
Audio is AC3 audio from the R5 DVD so nice and crisp...

Enjoy
[/CODE]
Screens:
http://img137.imageshack.us/img137/6702/pardgaje.png

http://img831.imageshack.us/img831/8439/qyqsdqe.png

Related torrents

Torrent NameAddedSizeSeedLeechHealth
1 Year+ - in Movies1.41 GB74
1 Year+ - in Movies1.41 GB00
1 Year+ - in Movies882.21 MB01
1 Year+ - in Movies1.38 GB64
1 Year+ - in Movies1.38 GB31

Comments (0 Comments)




Please login or create a FREE account to post comments

Latest Searches

| CHICAGO FIRE WEB DL x264 FUM ettv | profitable forex | fuck fuck fuck teen | X Art Capri and Kiera Happy Birthday Capri | the conscience | HDTV XVId FUM ettv avi | Jav Uncensored Caribbean 062316 191 | furia de titanes eng spa | Web Animation Using JavaScript Develop and Design 2015 | Zoey Monroe Dpd |