Quick Browse
Movies
TV shows
Music
Games
Applications
Anime
Other
Facebook
Advertising

Friends
Torrent Download
Movie4u
1337x.to
Torrent Downloads




Verified torrent Shadow of the Thin Man - L'Ombra Dell'Uomo Ombra (1941) [XviD - Italian English Ac3 - Sub Ita Eng] MIRCrew [TNT Village]


    Seeders : 1      Leechers : 0

Trackers List

Tracker NameLast CheckStatusSeedersLeechers




Torrent File Content (3 files)


L'Ombra Dell'Uomo Ombra - Shadow of the Thin Man (1941)
     L'Ombra Dell'Uomo Ombra - W.S. Van Dyke (1941).avi -
1.37 GB

     L'Ombra Dell'Uomo Ombra - W.S. Van Dyke (1941).idx -
272.88 KB

     L'Ombra Dell'Uomo Ombra - W.S. Van Dyke (1941).sub -
24.57 MB



Description



Shadow of the Thin Man - L'Ombra Dell'Uomo Ombra (1941) [XviD - Italian English Ac3 - Sub Ita Eng] MIRCrew [TNT
Village]


L'Ombra Dell'Uomo Ombra - Shadow of the Thin Man (1941) [XviD - Italian English Ac3 - Sub Ita Eng] MIRCrew [TNT Village]



[color=#663300]
http://img706.imageshack.us/img706/5530/mircreworiginal.gif



L'Ombra Dell'Uomo Ombra - Shadow of the Thin Man (1941)


[URL=http://www.imdb.com/title/tt0034172/]
http://img197.imageshack.us/img197/1332/imdblogo.gif
[/URL]

http://i752.photobucket.com/albums/xx170/robbyrs/Shadow-Of-The-Thin-Man-1941-Front-Cover-58594.jpg


http://img128.imageshack.us/img128/3562/schedafilmrb.gif


Titolo originale Shadow of the Thin Man
Lingua originale inglese
Paese di produzione Stati Uniti d'America
Anno 1941
Durata 97 min
Colore bianco e nero

Rapporto 1,37 : 1
Genere commedia, romantico, giallo
Regia W.S. Van Dyke
Soggetto Harry Kurnitz
Sceneggiatura Irving Brecher, Harry Kurnitz, Dashiell Hammett
Produttore Hunt Stromberg
Casa di produzione Metro-Goldwyn-Mayer
Fotografia William H. Daniels (accreditato come William Daniels)
Montaggio Robert Kern (accreditato come Robert J. Kern)
Musiche David Snell
Scenografia Cedric Gibbons
Costumi Robert Kalloch

Terzo episodio della fortunata serie de "L'uomo ombra"

http://i752.photobucket.com/albums/xx170/robbyrs/Lombra_delluomo_ombra.jpg


http://i752.photobucket.com/albums/xx170/robbyrs/vlcsnap-2012-12-24-15h03m26s190.jpg


http://img825.imageshack.us/img825/3978/ringraziare.gif



http://img845.imageshack.us/img845/7838/cast.gif


William Powell: Nick Charles
Myrna Loy: Nora Charles
Barry Nelson: Paul Clarke
Donna Reed: Molly Ford
Sam Levene: tenente Abrams
Alan Baxter: 'Whitey' Barrow
Henry O'Neill: maggiore Jason I. Sculley
Richard Hall: Nick Charles, Jr. (accreditato come Dickie Hall)
Stella Adler: Claire Porter / Clara Peters
Loring Smith: 'Link' Stephens
Joseph Anthony: Fred Macy
Lou Lubin: 'Rainbow' Benny Loomis
Louise Beavers: Stella
Sheldon Bennett: Mario
Oliver Blake: Fenster, procuratore di Stephens
Frankie Burke: Jockey Buddy Burns

http://i752.photobucket.com/albums/xx170/robbyrs/vlcsnap-2012-12-24-15h03m20s112.jpg


http://img222.imageshack.us/img222/4740/trama.gif


Nick e Nora Charles stanno trascorrendo una giornata rilassante all'ippodromo quando un fantino viene trovato ucciso. Il tenente di polizia Abrams richiede l'aiuto di Nick......

Storyline

Nick and Nora's hopes for a pleasant afternoon at the local race track are dashed when a jockey is found shot dead in the locker room. Nick's friend Lt. Abrams wants him to help out but

Nick is enjoying the good life too much to get involved. However, he is subsequently approached by Major Scully to look into corruption and the role of organized crime in gambling. Others

are killed but in the end, Nick gathers all of the suspects into a room and identifies the killer....

http://i752.photobucket.com/albums/xx170/robbyrs/vlcsnap-2012-12-24-15h03m40s56.jpg




http://img245.imageshack.us/img245/3893/datifile.gif



General
Complete name : L'Ombra Dell'Uomo Ombra - Shadow of the Thin Man (1941)\L'Ombra Dell'Uomo Ombra - W.S. Van Dyke (1941).avi
Format : AVI
Format/Info : Audio Video Interleave
File size : 1.37 GiB
Duration : 1h 33mn
Overall bit rate : 2 101 Kbps
Writing application : VirtualDubMod 1.5.4.1 (build 2178/release)
Writing library : VirtualDubMod build 2178/release

Video
ID : 0
Format : MPEG-4 Visual
Format profile : Advanced [email protected]
Format settings, BVOP : Yes
Format settings, QPel : No
Format settings, GMC : No warppoints
Format settings, Matrix : Custom
Codec ID : XVID
Codec ID/Hint : XviD
Duration : 1h 33mn
Bit rate : 1 708 Kbps
Width : 592 pixels
Height : 448 pixels
Display aspect ratio : 4:3
Frame rate : 25.000 fps
Color space : YUV
Chroma subsampling : 4:2:0
Bit depth : 8 bits
Scan type : Progressive
Bits/(Pixel*Frame) : 0.258
Stream size : 1.11 GiB (81%)
Writing library : XviD 1.2.1 (UTC 2008-12-04)

Audio #1
ID : 1
Format : AC-3
Format/Info : Audio Coding 3
Mode extension : CM (complete main)
Codec ID : 2000
Duration : 1h 33mn
Bit rate mode : Constant
Bit rate : 192 Kbps
Channel(s) : 1 channel
Channel positions : Front: C
Sampling rate : 48.0 KHz
Bit depth : 16 bits
Stream size : 128 MiB (9%)
Alignment : Aligned on interleaves
Interleave, duration : 96 ms (2.40 video frames)
Interleave, preload duration : 96 ms
Language : Italian

Audio #2
ID : 2
Format : AC-3
Format/Info : Audio Coding 3
Mode extension : CM (complete main)
Codec ID : 2000
Duration : 1h 33mn
Bit rate mode : Constant
Bit rate : 192 Kbps
Channel(s) : 1 channel
Channel positions : Front: C
Sampling rate : 48.0 KHz
Bit depth : 16 bits
Stream size : 128 MiB (9%)
Alignment : Aligned on interleaves
Interleave, duration : 96 ms (2.40 video frames)
Interleave, preload duration : 96 ms
Language : English




http://img40.imageshack.us/img40/2121/avrhgfsq3ik77m3offo0.gif


[/color]

Related torrents

Torrent NameAddedSizeSeedLeechHealth
Verified torrent
1 Year+ - in Movies1.38 GB1824
Verified torrent
1 Year+ - in Movies1.47 GB10
Verified torrent
1 Year+ - in Movies1.57 GB02
Verified torrent
1 Year+ - in Movies2.01 GB2522
Verified torrent
1 Year+ - in Movies1.57 GB126

Comments (0 Comments)




Please login or create a FREE account to post comments

Latest Searches

| Rolling Stones From The Vault L A Forum Live in 1975 | martha december | laurel in hardy | Christmas Monsterjam Vol 3 | klaudia kelly compilation | rock around the | storia di una monaca di | Alexandra stan saxo | 7 PRODUCT KEYS | czech couples 28 |