Quick Browse
Movies
TV shows
Music
Games
Applications
Anime
Other
Facebook
Advertising

Friends
Torrent Download
Movie4u
1337x.to
Torrent Downloads




Shakira Waka Waka Fifa 2010 World cup Video & SubTitles By Innovative Team


    Seeders : 0      Leechers : 0

Trackers List

Tracker NameLast CheckStatusSeedersLeechers




Torrent File Content (8 files)


Shakira Waka Waka Fifa 2010 World cup Video & SubTitles By Innovative Team
     Shakira Waka Waka Fifa 2010 World cup Video By Innovative Team info.txt -
5.1 KB

     Shakira Waka Waka Fifa 2010 World cup Video By Innovative Team.avi -
53.57 MB

     Shakira Waka Waka Fifa 2010 World cup Video By Innovative Team.srt -
2.42 KB

     Shakira Waka Waka Fifa 2010 World cup Video By Innovative Team01.jpg -
40.72 KB

     Shakira Waka Waka Fifa 2010 World cup Video By Innovative Team1.jpg -
71.78 KB

     Shakira Waka Waka Fifa 2010 World cup Video By Innovative Team2.jpg -
57.33 KB

     Shakira Waka Waka Fifa 2010 World cup Video By Innovative Team3.jpg -
81.53 KB

     Shakira Waka Waka Fifa 2010 World cup Video By Innovative Team4.jpg -
95.39 KB



Description



Torrent uploaded by Innovative team.


General
Complete name : Shakira Waka Waka Fifa 2010 World cup Anthem Video By Innovative Team\Shakira Waka Waka Fifa 2010 World cup Anthem Video By Innovative Team.avi
Format : AVI
Format/Info : Audio Video Interleave
File size : 53.6 MiB
Duration : 3mn 30s
Overall bit rate : 2 131 Kbps
Writing application : MEncoder Sherpya-SVN-r29355-4.5.0
Writing library : MPlayer

Video
ID : 0
Format : MPEG-4 Visual
Format profile : [email protected]
Format settings, BVOP : No
Format settings, QPel : No
Format settings, GMC : No warppoints
Format settings, Matrix : Default (H.263)
Codec ID : XVID
Codec ID/Hint : XviD
Duration : 3mn 30s
Bit rate : 1 997 Kbps
Width : 640 pixels
Height : 360 pixels
Display aspect ratio : 16:9
Frame rate : 30.000 fps
Color space : YUV
Chroma subsampling : 4:2:0
Bit depth : 8 bits
Scan type : Progressive
Bits/(Pixel*Frame) : 0.289
Stream size : 50.1 MiB (94%)
Writing library : XviD 1.2.1 (UTC 2008-12-04)

Audio
ID : 1
Format : MPEG Audio
Format version : Version 1
Format profile : Layer 3
Mode : Joint stereo
Mode extension : MS Stereo
Codec ID : 55
Codec ID/Hint : MP3
Duration : 3mn 30s
Bit rate mode : Variable
Bit rate : 123 Kbps
Channel(s) : 2 channels
Sampling rate : 44.1 KHz
Stream size : 3.09 MiB (6%)
Alignment : Aligned on interleaves
Interleave, duration : 26 ms (0.78 video frame)
Interleave, preload duration : 523 ms



If you like this torrent then please seed and leave as many
comments as possible to encourage me or mail me on [email protected]

And Plz seed as thank you...

Brought to you by Innovative Team
Ashutosh.

Related torrents

Torrent NameAddedSizeSeedLeechHealth
1 Year+ - in Music47.32 MB13711
1 Year+ - in Music98.62 MB01
1 Year+ - in Music9.42 MB00
1 Year+ - in Music50.96 MB32111
1 Year+ - in Movies96.46 MB00

Comments (0 Comments)




Please login or create a FREE account to post comments

Latest Searches

| Aptitude test papers | countdown to apocalypse s01e01 | The Damned United brrip xvid ac3 | Pirates of caribbean on stranger tides 720p hindi | The Clash | San quinn full album | 2016 | Mozart in the Jungle Sex Drugs and Classical Music | irakere jazz | ultimate fighter 24 prelims |