Quick Browse
Movies
TV shows
Music
Games
Applications
Anime
Other
Facebook
Advertising

Friends
Torrent Download
Movie4u
1337x.to
Torrent Downloads




Verified torrent Shame 2012 CAM READNFO XViD AC3-26K


    Seeders : 111      Leechers : 28
Hash :B286EE4CD0EB8CEE882B62CB67068E44BBBBCCAC
Added :1 Year+ by memory100Verified torrent uploader in Movies
Size :1.23 GB
Stream :WATCH ONLINE @ Movie4u


Shame 2012 CAM READNFO XViD AC3-26K
Free and Fast Download with Usenet 300GB+ free







Trackers List

Tracker NameLast CheckStatusSeedersLeechers




Torrent File Content (7 files)


Shame 2012 CAM READNFO XViD AC3-26K
     HDSceneRG.txt -
115 bytes

     Shame 2012 CAM READNFO XViD AC3-26K.avi -
1.2 GB

     Shame 2012 CAM READNFO XViD AC3-26K.nfo -
3.5 KB

     Torrent downloaded from Demonoid.me.txt -
46 bytes

     att-networks.com.txt -
39 bytes

     sample.avi -
37 MB

     sceneunderground.org.txt -
77 bytes



Description



http://img607.imageshack.us/img607/8530/shame.jpg

[code]
Shame 2012 CAM READNFO XViD AC3-26K

Imdb:
http://www.imdb.com/title/tt1723811/

Plot:
In New York City, Brandon's carefully cultivated private life -- which allows him to indulge his sexual

addiction -- is disrupted when his sister Sissy arrives unannounced for an indefinite stay.

Sources:
VIDEO-P76. THNXS
AUDIO-INSPIRAL. THNXS

Notes:
READNFO WELL THE VIDEO HAS A WATERMARK ON IT...ALSO AS FEW MISSING BITS IN the VIDEO AT DIFFRENT PLACES

missing NOT MUCH IS MISSED TO BE FAIR... ADDED FEW FILTERS TO THE VIDEO TO MAKE IT LOOK GOOD SO BOTTOM

LINE TAKE IT OR LEAVE IT ;)
THNXS TO BOTH P76 AND INSPIRAL ;0)

Greetz:
Xtreme

Encode|FYA|ILLUMANTI|CM8|RX|VISION|HDSCENE|NIGHTMAREZ|xTriLL|DTRG|CRYS|REMIXHD|BIDA|RX|REFILL|INSPiRAL|S

IC|ZOMBIESZ|HOPE|Anonymous
To all the people who have helped me :P you know who you are

Anything to offer email us @: [email protected]

Video
ID : 0
Format : MPEG-4 Visual
Format profile : Advanced [email protected]
Format settings, BVOP : 2
Format settings, QPel : No
Format settings, GMC : No warppoints
Format settings, Matrix : Default (H.263)
Codec ID : XVID
Codec ID/Hint : XviD
Duration : 1h 35mn
Bit rate : 1 600 Kbps
Width : 640 pixels
Height : 256 pixels
Display aspect ratio : 2.500
Frame rate : 25.000 fps
Color space : YUV
Chroma subsampling : 4:2:0
Bit depth : 8 bits
Scan type : Progressive
Compression mode : Lossy
Bits/(Pixel*Frame) : 0.391
Stream size : 1.06 GiB (89%)
Writing library : XviD 63

Audio
ID : 1
Format : AC-3
Format/Info : Audio Coding 3
Mode extension : CM (complete main)
Codec ID : 2000
Duration : 1h 35mn
Bit rate mode : Constant
Bit rate : 192 Kbps
Channel(s) : 2 channels
Channel positions : Front: L R
Sampling rate : 44.1 KHz
Bit depth : 16 bits
Compression mode : Lossy
Stream size : 131 MiB (11%)
Alignment : Aligned on interleaves
Interleave, duration : 35 ms (0.87 video frame)

[/code]
Screens:
http://img810.imageshack.us/img810/4094/vlcsnap2012012512h18m55.png

http://img441.imageshack.us/img441/8766/vlcsnap2012012512h18m59.png

http://img688.imageshack.us/img688/3056/vlcsnap2012012512h19m08.png

http://img542.imageshack.us/img542/412/vlcsnap2012012512h19m15.png

http://img854.imageshack.us/img854/514/vlcsnap2012012512h19m23.png


http://img851.imageshack.us/img851/5503/26ks.jpg

Thank you smallz for banner!

Related torrents

Torrent NameAddedSizeSeedLeechHealth
7 months ago - in Movies1.56 GB00
1 Year+ - in Movies896.86 MB11
1 Year+ - in Movies895.86 MB10
Verified torrent
1 Year+ - in Movies1.56 GB545164
Verified torrent
1 Year+ - in Movies1.1 GB21232

Comments (0 Comments)




Please login or create a FREE account to post comments

Latest Searches

| 2016 english movies HD ts | My Tutor 1983 720p BR Rip x264 HINDI ENG Im Loser | avril sun salieri | york planet chill 2015 | i put spell on u | syncmate 6 6 | Retro Spit Roasting DP | Fidelity 1 | Snowy White No Faith Required | luna star big wet |