Quick Browse
Movies
TV shows
Music
Games
Applications
Anime
Other
Facebook
Advertising

Friends
Torrent Download
Movie4u
1337x.to
Torrent Downloads




Shaolin Soccer 2001 XVID [DVDrip] [Dual Audio] [Eng-Hindi] - {RAVI}


    Seeders : 13      Leechers : 3

Trackers List

Tracker NameLast CheckStatusSeedersLeechers
udp://tracker.openbittorrent.com:80/announce1 Year+success133




Torrent File Content (19 files)


Shaolin Soccer 2001 XVID [DVDrip] [Dual Audio] [Eng-Hindi] - {RAVI}
    Movie
          Shaolin Soccer 2001 XVID [DVDrip] [Dual Audio] [Eng-Hindi] - {RAVI}.mkv -
771.62 MB

    Sample
          Shaolin Soccer 2001 XVID [DVDrip] [Dual Audio] [Eng-Hindi] [Sample] - {RAVI} .mkv -
13.98 MB

    Cover
          Shaolin Soccers Cover.jpg -
122.42 KB

    Screen Shots
          (1).jpg -
25.14 KB

          (8).jpg -
21.42 KB

          (7).jpg -
18.78 KB

          (4).jpg -
17.63 KB

          (5).jpg -
16.31 KB

          (10).jpg -
15.63 KB

          (6).jpg -
15.38 KB

          (2).jpg -
14.39 KB

          (3).jpg -
13.98 KB

          (9).jpg -
10.8 KB

     Media Info.txt -
3.79 KB

     Torrent Downloaded From ExtraTorrent.com.txt -
353 bytes

     Please Seed And Comment.txt -
153 bytes

     Torrent downloaded from Silvertorrents.me.txt -
53 bytes

     Torrent Downloaded from Limetorrents.com.txt -
48 bytes

     Torrent downloaded from kickasstorrent.com.txt -
45 bytes



Description



Shaolin Soccer 2001 XVID [DVDrip] [Dual Audio] [Eng-Hindi] - {RAVI}


http://i1198.photobucket.com/albums/aa452/stifler151991/Shaolin%20Soccer/ShaolinSoccersCover.jpg




http://i1198.photobucket.com/albums/aa452/stifler151991/infoxe.png


General
Unique ID : 175970198668890239822799227320648150171 (0x8462A0A36BFA9A8F9EB311AA6A7D2C9B)
Complete name : Shaolin Soccer [2001] [DVDrip] [Dual Audio] [Eng-Hindi] - {RAVI}.mkv
Format : Matroska
Format version : Version 2
File size : 772 MiB
Duration : 1h 25mn
Overall bit rate mode : Variable
Overall bit rate : 1 260 Kbps
Movie name : Shaolin Soccer [2001] [DVDrip] [Dual Audio] [Eng-Hindi] - {RAVI}
Encoded date : UTC 2012-01-04 09:03:11
Writing application : mkvmerge v5.2.0 ('I can't explain') built on Dec 18 2011 18:12:03
Writing library : libebml v1.2.3 + libmatroska v1.3.0

Video
ID : 1
Format : MPEG-4 Visual
Format profile : Advanced [email protected]
Format settings, BVOP : Yes
Format settings, QPel : No
Format settings, GMC : No warppoints
Format settings, Matrix : Custom
Codec ID : XVID
Codec ID/Hint : XviD
Duration : 1h 25mn
Bit rate : 993 Kbps
Width : 608 pixels
Height : 336 pixels
Display aspect ratio : 16:9
Frame rate : 25.000 fps
Color space : YUV
Chroma subsampling : 4:2:0
Bit depth : 8 bits
Scan type : Progressive
Compression mode : Lossy
Bits/(Pixel*Frame) : 0.194
Stream size : 608 MiB (79%)
Title : Shaolin Soccer [2001] [DVDrip] [Dual Audio] [Eng-Hindi] - {RAVI}
Writing library : XviD 1.2.1 (UTC 2008-12-04)
Language : English

Audio #1
ID : 2
Format : MPEG Audio
Format version : Version 1
Format profile : Layer 3
Mode : Joint stereo
Muxing mode : Header stripping
Codec ID : A_MPEG/L3
Codec ID/Hint : MP3
Duration : 1h 25mn
Bit rate mode : Constant
Bit rate : 128 Kbps
Channel(s) : 2 channels
Sampling rate : 48.0 KHz
Compression mode : Lossy
Stream size : 78.4 MiB (10%)
Title : Shaolin Soccer [2001] [DVDrip] - {RAVI} - HINDI
Language : Hindi

Audio #2
ID : 3
Format : MPEG Audio
Format version : Version 1
Format profile : Layer 3
Mode : Joint stereo
Mode extension : MS Stereo
Muxing mode : Header stripping
Codec ID : A_MPEG/L3
Codec ID/Hint : MP3
Duration : 1h 25mn
Bit rate mode : Variable
Bit rate : 115 Kbps
Nominal bit rate : 128 Kbps
Channel(s) : 2 channels
Sampling rate : 48.0 KHz
Compression mode : Lossy
Stream size : 70.1 MiB (9%)
Title : Shaolin Soccer [2001] [DVDrip] - {RAVI} - ENGLISH
Writing library : LAME3.98r
Encoding settings : -m j -V 4 -q 2 -lowpass 17 --abr 128
Language : English




http://i1198.photobucket.com/albums/aa452/stifler151991/1308777872460.gif



http://i1198.photobucket.com/albums/aa452/stifler151991/Shaolin%20Soccer/1.jpg

http://i1198.photobucket.com/albums/aa452/stifler151991/Shaolin%20Soccer/2.jpg

http://i1198.photobucket.com/albums/aa452/stifler151991/Shaolin%20Soccer/3.jpg

http://i1198.photobucket.com/albums/aa452/stifler151991/Shaolin%20Soccer/4.jpg

http://i1198.photobucket.com/albums/aa452/stifler151991/Shaolin%20Soccer/5.jpg

http://i1198.photobucket.com/albums/aa452/stifler151991/Shaolin%20Soccer/6.jpg

http://i1198.photobucket.com/albums/aa452/stifler151991/Shaolin%20Soccer/7.jpg

http://i1198.photobucket.com/albums/aa452/stifler151991/Shaolin%20Soccer/8.jpg

http://i1198.photobucket.com/albums/aa452/stifler151991/Shaolin%20Soccer/9.jpg

http://i1198.photobucket.com/albums/aa452/stifler151991/Shaolin%20Soccer/10.jpg



Sample Included In The Torrent


http://i1198.photobucket.com/albums/aa452/stifler151991/1308777893184.gif



http://i1198.photobucket.com/albums/aa452/stifler151991/klz1324802972g.gif



http://i1198.photobucket.com/albums/aa452/stifler151991/commentsrappreciated.gif


http://i1198.photobucket.com/albums/aa452/stifler151991/ifacuh.gif


http://i1198.photobucket.com/albums/aa452/stifler151991/jfkpd3jpg.gif




Please Seed And Dont Forget To Say Thanks After Download



http://i1198.photobucket.com/albums/aa452/stifler151991/43268970463943739196.gif

Related torrents

Torrent NameAddedSizeSeedLeechHealth
1 Year+ - in Other246.36 MB15
1 Year+ - in Movies673.17 MB21
1 Year+ - in Movies707.43 MB05
1 Year+ - in Other1010.96 MB21
1 Year+ - in Movies1.75 GB21

Comments (0 Comments)




Please login or create a FREE account to post comments

Latest Searches

| Hawaii Five 2010 S07E10 | ariana should bang | BEFIKRE 2016 1CD Desi PDvD Rip x264 AAC 2 0 De Flickered DDR | Dr Seusss how the Grinch stole Christmas 2000 | playboy perfect | mens december | straight up face | last man s06e10 | far from over drake | redtube creampie |