Quick Browse
Movies
TV shows
Music
Games
Applications
Anime
Other
Facebook
Advertising

Friends
Torrent Download
Movie4u
1337x.to
Torrent Downloads




Verified torrent Shark City [DVD5] [ENG] [AC3] [Hannspree]


    Seeders : 1      Leechers : 0
Hash :9F9BAFF925701B1A0E7E385D64E3099A876E83A6
Added :1 Year+ by HannspreeVerified torrent uploader in Movies
Size :1.29 GB
Stream :WATCH ONLINE @ Movie4u


Shark City [DVD5] [ENG] [AC3] [Hannspree]
Free and Fast Download with Usenet 300GB+ free







Trackers List

Tracker NameLast CheckStatusSeedersLeechers




Torrent File Content (15 files)


Shark City
    Northern Warriors [NFO]
          NW RG.nfo -
13.08 KB

          NW RG.txt -
70 bytes

    Shark City [DVD]
          VIDEO_TS/VIDEO_TS.BUP -
12 KB

          VIDEO_TS/VIDEO_TS.IFO -
12 KB

          VIDEO_TS/VIDEO_TS.VOB -
58 KB

          VIDEO_TS/VTS_01_0.BUP -
64 KB

          VIDEO_TS/VTS_01_0.IFO -
64 KB

          VIDEO_TS/VTS_01_0.VOB -
58 KB

          VIDEO_TS/VTS_01_1.VOB -
1023.97 MB

          VIDEO_TS/VTS_01_2.VOB -
291.93 MB

    Shark City [Images]
          Shark City [Cover].jpg -
65.48 KB

          Shark City [Disc].jpg -
31.52 KB

          Shark City [Screens].jpg -
147.06 KB

     Shark City.NFO -
3.75 KB

     Torrent downloaded from Northern Warriors.net.txt -
55 bytes



Description



=====================================================================================
[ Another free, high quality, ready to burn DVD I will be adding new torrents on a daily basis - Remember to seed ]
=====================================================================================
MOVIE TITLE: Shark City
LANGUAGE: English
MOVIE SUBS: No
BURN TESTED: Yes
FORMAT: Pal
GENRE: Comedy | Drama | Romance
RUNTIME: 87 Minutes
YEAR: 2009
IMDB LINK: http://www.imdb.com/title/tt1055367/
=====================================================================================
MOVIE DESC:

Dagen and Kenny are two best friends and struggling to stay afloat in the big city. When one of them finds his dream girl, who just happens to be the daughter of the biggest Mobster in town and the other swindles her mob boss dad out of a million dollar stock deal with the markets plunging only to result to his poker skills to get back in the game.
=====================================================================================
MOVIE SPECS:

GENERAL:
Complete name : Shark City [DVD5]
Format : MPEG-PS
File size : 1.28 GB
Duration : 87 Minutes
Overall bit rate : 2 093 Kbps

VIDEO:
ID : 224 (0xE0)
Format : MPEG Video
Format version : Version 2
Format profile : [email protected]
Format settings, BVOP : Yes
Format settings, Matrix : Default
Duration : 87 Minutes
Bit rate mode : Variable
Bit rate : 1 860 Kbps
Nominal bit rate : 9 608 Kbps
Width : 720 pixels
Height : 576 pixels
Display aspect ratio : 16:9
Frame rate : 24.000 fps
Standard : PAL
Color space : YUV
Chroma subsampling : 4:2:0
Bit depth : 8 bits
Scan type : Progressive
Scan order : 2:2:2:2:2:2:2:2:2:2:2:3 Pulldown
Bits/(Pixel*Frame) : 0.187
Stream size : 910 MiB (89%)

AUDIO:
ID : 128 (0x80)
Format : AC-3
Format/Info : Audio Coding 3
Mode extension : CM (complete main)
Duration : 87 Minutes
Bit rate mode : Constant
Bit rate : 192 Kbps
Channel(s) : 2 channels
Channel positions : Front: L R
Sampling rate : 48.0 KHz
Stream size : 93.9 MiB (9%)
=====================================================================================
TRACKER:
http://denis.stalker.h3q.com:6969/announce
http://nemesis.1337x.org/announce
http://exodus.1337x.org/announce
http://tracker.publicbt.com/announce
http://10.rarbg.com/announce
http://tracker.ilibr.org:6969/announce
http://rt.beeretracker.net/announce.php
http://red.tracker.prq.to/announce
http://tpb.tracker.prq.to/announce
=====================================================================================
[FOOT NOTE]
If you are happy with this download, it would be nice to hear your views or comments that you might have. Enjoy
=====================================================================================
Screen Shot Of Shark City
=====================================================================================
http://leetpic.com/images/sharkcitys.jpg

=====================================================================================

Related torrents

Torrent NameAddedSizeSeedLeechHealth
Verified torrent
1 Year+ - in Movies1.68 GB42
Verified torrent
1 Year+ - in Movies1.63 GB03
Verified torrent
1 Year+ - in Movies2.14 GB28
Verified torrent
1 Year+ - in Movies869.42 MB55
Verified torrent
1 Year+ - in Movies2 GB02

Comments (0 Comments)




Please login or create a FREE account to post comments

Latest Searches

| Stella Daniels Stepsister Fucked for a Cig | fuck holes 3 treasure island | double anal group | bangbros thick | 2016 rq 1080p | Substance Designer Painted Metal | paintoy taking down rain | Secrets and lies s02e08 720p | fuck holes 3 hd | torrent space pirate captain harlock |