Quick Browse
Movies
TV shows
Music
Games
Applications
Anime
Other
Facebook
Advertising

Friends
Torrent Download
Movie4u
1337x.to
Torrent Downloads




Verified torrent She's Out Of My League (2010) DVDRip XviD - MAXSPEED - {XtremeTorrents}


    Seeders : 0      Leechers : 0

Trackers List

Tracker NameLast CheckStatusSeedersLeechers




Torrent File Content (7 files)


She's Out of My League (2010) DVDRip XviD-MAXSPEED
     She's Out of My League (2010) DVDRip XviD-MAXSPEED www.torentz.3xforum.ro.avi -
1.26 GB

     screencaps.jpg -
251.07 KB

     She's Out of My League (2010) DVDRip XviD-MAXSPEED.nfo -
2.48 KB

     Torrent downloaded from Demonoid.com.txt -
47 bytes

     Torrent verified and recommended by vertor.com.txt -
46 bytes

     Torrent downloaded from Rarbg.com.txt -
33 bytes

     tracked_by_h33t_com.txt -
23 bytes



Description



http://i49.tinypic.com/16c3rj5.jpg


http://i49.tinypic.com/9vguvd.jpg


http://i46.tinypic.com/5p31ao.jpg


http://i49.tinypic.com/23j040o.jpg


An average Joe meets the perfect woman, but his lack of confidence and the influence of his friends and family begin to pick away at the relationship.

Format : AVI
Format/Info : Audio Video Interleave
Format profile : OpenDML
File size : 1.26 GiB
Duration : 1h 44mn
Overall bit rate : 1 732 Kbps
Writing application : VirtualDubMod 1.5.10.2 (build 2542/release)
Writing library : VirtualDubMod build 2542/release
Original source form : MAX TORRENTZ
Copyright : SIGISMUNT

Video
ID : 0
Format : MPEG-4 Visual
Format profile : [email protected]
Format settings, BVOP : Yes
Format settings, QPel : No
Format settings, GMC : No warppoints
Format settings, Matrix : Default (MPEG)
Codec ID : XVID
Codec ID/Hint : XviD
Duration : 1h 44mn
Bit rate : 1 343 Kbps
Width : 720 pixels
Height : 304 pixels
Display aspect ratio : 2.35:1
Frame rate : 23.976 fps
Resolution : 24 bits
Colorimetry : 4:2:0
Scan type : Progressive
Bits/(Pixel*Frame) : 0.256
Stream size : 1 004 MiB (78%)
Writing library : XviD 1.2.1 (UTC 2008-12-04)

Audio
ID : 1
Format : AC-3
Format/Info : Audio Coding 3
Codec ID : 2000
Duration : 1h 44mn
Bit rate mode : Constant
Bit rate : 384 Kbps
Channel(s) : 6 channels
Channel positions : Front: L C R, Surround: L R, LFE
Sampling rate : 48.0 KHz
Stream size : 287 MiB (22%)
Alignment : Aligned on interleaves
Interleave, duration : 64 ms (1.53 video frames)
Interleave, preload duration : 192 ms

Source: 720p BluRay

Related torrents

Torrent NameAddedSizeSeedLeechHealth
1 Year+ - in Movies899.78 MB11
Verified torrent
1 Year+ - in Movies682.28 MB13
1 Year+ - in Movies2.74 GB2033
1 Year+ - in Movies29.11 GB00
1 Year+ - in Movies1.03 GB15

Comments (0 Comments)




Please login or create a FREE account to post comments

Latest Searches

| dream threesome 2016 webrip sd | muppets from space 1999 dvdrip english klam | Telugu movie torrents | Re Loader exe | All Saints Day Boondock Saints 2 | Blues Learning | r b classics playlist | the grand family | Shameless US Season 6 | License To Fuck Tylo Duran Hunter |