Quick Browse
Movies
TV shows
Music
Games
Applications
Anime
Other
Facebook
Advertising

Friends
Torrent Download
Movie4u
1337x.to
Torrent Downloads




Sherlock.Holmes.CAM.THS


    Seeders : 1362      Leechers : 747
Hash :BEBBF95578663C7B7CA06BA2BE90CA4109136DBE
Added :1 Year+ in Movies
Size :848.69 MB
Stream :WATCH ONLINE @ Movie4u


Sherlock.Holmes.CAM.THS
Free and Fast Download with Usenet 300GB+ free







Trackers List

Tracker NameLast CheckStatusSeedersLeechers




Torrent File Content (1 file)


     Sherlock.Holmes.CAM.www.IWANNADOWNLOAD.com.avi -
848.69 MB



Description



File Name:
Sherlock.Holmes.CAM.THS

Video Sample:
http://www.movshare.net/video/vuugmw6ovgoz1

http://www.imdb.com/title/tt0988045/

http://i48.tinypic.com/nxq55g.jpg



Format/Info : Audio Video Interleave
File size : 849 MiB
Duration : 1h 59mn
Overall bit rate : 992 Kbps

Video
ID : 0
Format : MPEG-4 Visual
Format profile : [email protected]
Format settings, BVOP : No
Format settings, QPel : No
Format settings, GMC : No warppoints
Format settings, Matrix : Default (H.263)
Codec ID : DIVX
Codec ID/Info : Project Mayo
Codec ID/Hint : DivX 4
Duration : 1h 59mn
Bit rate : 820 Kbps
Width : 544 pixels
Height : 368 pixels
Display aspect ratio : 1.478
Frame rate : 23.976 fps
Resolution : 24 bits
Colorimetry : 4:2:0
Scan type : Progressive
Bits/(Pixel*Frame) : 0.171
Stream size : 701 MiB (83%)
Writing library : FFmpeg0.4.9-pre1b4721

Audio
ID : 1
Format : MPEG Audio
Format version : Version 1
Format profile : Layer 3
Format_Settings_Mode : Joint stereo / MS Stereo
Codec ID : 55
Codec ID/Hint : MP3
Duration : 1h 59mn
Bit rate mode : Constant
Bit rate : 160 Kbps
Channel(s) : 2 channels
Sampling rate : 44.1 KHz
Resolution : 16 bits
Stream size : 137 MiB (16%)
Alignment : Aligned on interleaves
Interleave, duration : 26 ms (0.63 video frame)
Interleave, preload duration : 522 ms

Detective Sherlock Holmes and his stalwart partner Watson engage in a battle of wits and brawn with a nemesis whose plot is a threat to all of England.

Related torrents

Torrent NameAddedSizeSeedLeechHealth
1 Year+ - in Movies1.72 GB00
1 Year+ - in Movies8.17 MB00
1 Year+ - in Movies848.69 MB4320
3 months ago - in Other290.47 MB00
11 months ago - in Other3.1 GB00

Comments (0 Comments)




Please login or create a FREE account to post comments

Latest Searches

| Kristen Scott HardX | land work | xxx Web tube | R Kelly black panties | Sarrainodu Telugu Full Movie 2016 HD TC 720p x264 | everyone in the world | steve seasick keepin | taylor swift i don t | pacquiao juan manuel marquez | Custom PC February 2017 |