Quick Browse
Movies
TV shows
Music
Games
Applications
Anime
Other
Facebook
Advertising

Friends
Torrent Download
Movie4u
1337x.to
Torrent Downloads




Verified torrent Sherlock Holmes A Game of Shadows 2011 720P TS READNFO Xvid-26K


    Seeders : 234      Leechers : 133

Trackers List

Tracker NameLast CheckStatusSeedersLeechers




Torrent File Content (7 files)


Sherlock Holmes A Game of Shadows 2011 720P TS READNFO Xvid-26K
     sample.avi -
40.74 MB

     sceneunderground.org.txt -
77 bytes

     att-networks.com.txt -
39 bytes

     Torrent downloaded from Demonoid.me.txt -
46 bytes

     Sherlock Holmes A Game of Shadows 2011 720P TS READNFO Xvid-26K.AVI -
2.3 GB

     Sherlock Holmes A Game of Shadows 2011 720P TS READNFO Xvid-26K.nfo -
3.76 KB

     HDSceneRG.txt -
115 bytes



Description



http://img715.imageshack.us/img715/2632/sherlocki.jpg

[code]
Sherlock Holmes A Game of Shadows 2011 720P TS READNFO Xvid-26K

Imdb:
http://www.imdb.com/title/tt1515091/

Plot:
Sherlock Holmes and his sidekick Dr. Watson join forces to outwit and bring down their fiercest adversary, Professor Moriarty.

Sources:
OWN VIDEO!
own cam audio/unknown line

Notes:
why readnfo?
720p cam :) veyr good quality a bit dark in few places so added a bit of brightness not too much as it will ruin the video! video has tiny bit of flicker!! in it !

also the audio is a mix of cam and line!! synced best i coul it may have slight oss but it goes back to been sync better than nothing!!

so bottom line take it or leave it :)
and unknown it would be nice if you give the full line bro if you have it..!

Greetz:
Xtreme Encode|FYA|ILLUMANTI|CM8|RX|VISION|HDSCENE|NIGHTMAREZ|xTriLL|DTRG|CRYS|REMIXHD|BIDA|RX|REFILL| INSPiRAL
To all the people who have helped me :P you know who you are

Anything to offer email us @: [email protected]

Video
ID : 0
Format : MPEG-4 Visual
Format profile : Advanced [email protected]
Format settings, BVOP : 2
Format settings, QPel : No
Format settings, GMC : No warppoints
Format settings, Matrix : Default (H.263)
Codec ID : XVID
Codec ID/Hint : XviD
Duration : 2h 0mn
Bit rate : 2 600 Kbps
Width : 1 280 pixels
Height : 540 pixels
Display aspect ratio : 2.35:1
Frame rate : 25.000 fps
Color space : YUV
Chroma subsampling : 4:2:0
Bit depth : 8 bits
Scan type : Progressive
Compression mode : Lossy
Bits/(Pixel*Frame) : 0.150
Stream size : 2.18 GiB (95%)
Writing library : XviD 63

Audio
ID : 1
Format : MPEG Audio
Format version : Version 1
Format profile : Layer 3
Mode : Joint stereo
Mode extension : MS Stereo
Codec ID : 55
Codec ID/Hint : MP3
Duration : 2h 0mn
Bit rate mode : Constant
Bit rate : 128 Kbps
Channel(s) : 2 channels
Sampling rate : 44.1 KHz
Compression mode : Lossy
Stream size : 110 MiB (5%)
Alignment : Aligned on interleaves
Interleave, duration : 40 ms (1.00 video frame)
Writing library : LAME3.98r
Encoding settings : -m j -V 4 -q 2 -lowpass 17 -b 128

[/code]
Screens:
http://img24.imageshack.us/img24/5290/vlcsnap2011123115h49m46.png

http://img42.imageshack.us/img42/7600/vlcsnap2011123118h04m23.png

http://img861.imageshack.us/img861/3263/vlcsnap2011123118h04m27.png

http://img824.imageshack.us/img824/7105/vlcsnap2011123118h04m35.png

http://img18.imageshack.us/img18/4837/vlcsnap2011123118h04m43.png



http://img851.imageshack.us/img851/5503/26ks.jpg
#
Thank you smallz for banner!

Related torrents

Torrent NameAddedSizeSeedLeechHealth
Verified torrent
1 Year+ - in Movies2.46 GB38594
4 months ago - in Movies5.51 GB00
5 months ago - in Movies373.42 MB00
Verified torrent
1 Year+ - in Movies2.91 GB10
1 Bad
Verified torrent
1 Year+ - in Movies819.76 MB00

Comments (0 Comments)




Please login or create a FREE account to post comments

Latest Searches

| Mia Malkova dirty wives | need another | Phoenix Marie Katrina Jade Johnny Castle in 2 Chicks Same Time | toy story 2 1999 1080p h264 aac 5 1 3d hsbs bluray realgonekid bennurg | pleasedont stop the music | Murder in Three Acts 1986 DVDRip 1 33 FS Eng QuincyMKT avi | code breaker s01e01 | First Anal Quest Francheska | hot tube sex videos | indian hidden camera |