Quick Browse
Movies
TV shows
Music
Games
Applications
Anime
Other

Donate and Support

Friends
Torrents.me
Torrent Download
Free Movies
1337x
RARBG
Torrent Downloads

Verified torrent Sherlock Holmes A Game of Shadows 2011 TS[neon] XviD.AC3-3LT0N


    Seeders : 1      Leechers : 0
Hash :84BB46ACF7444238275F82A28CBC9B1DAE7622C8
Added :1 Year+ by robyrsVerified torrent uploader in Movies
Size :828.86 MB
Stream :Watch Full Movies Online @ Movie4u
Share :


Sherlock Holmes A Game of Shadows 2011 TS[neon] XviD.AC3-3LT0N
Anonymous and Direct Download 300GB+ free







Warning! Do not Download Torrents Without a VPN!
Your IP Address is .   And Location is
Your Internet Provider and Government can track your torrent Activity!  Hide your IP ADDRESS with a VPN!
We Strongly Recommend Using SpyOFF Torrent VPN to Anonymize your Torrenting. It's FREE For 15 Days!

Note :

Please Update (Trackers Info) Before Downloading Torrents to See Updated Seeders And Leechers for Batter Download Speed.

Trackers List

Tracker NameLast CheckStatusSeedersLeechers




Torrent File Content (6 files)


Sherlock Holmes A Game of Shadows2012 TS[neon] XviD.AC3-3LT0N
     Sherlock Holmes A Game of Shadows2012 TS[neon] XviD.AC3-3LT0N.avi -
820.52 MB

     X1360 French.sub -
8.34 MB

     Torrent downloaded from AhaShare.com.txt -
59 bytes

     www.Quickertech.org.txt -
51 bytes

     Torrent downloaded from Demonoid.me.txt -
46 bytes

     Torrent downloaded from Rarbg.com.txt -
33 bytes



Description



Sherlock Holmes A Game of Shadows 2011 TS[neon] XviD.AC3-3LT0N

http://shayr.gs/9MGTDK.jpg

http://shayr.gs/KX1B1Q.jpg

http://shayr.gs/8DRJW3.jpg

http://shayr.gs/I2FWWC.jpg

http://www.imdb.com/title/tt1515091/


Language : English

Format : AVI

Format/Info : Audio Video Interleave

Format profile : OpenDML

Duration : 1h 38mn

Overall bit rate : 1 882 Kbps



Video

ID : 0

Format : MPEG-4 Visual

Format profile : Simple@L3

Format settings, BVOP : No

Format settings, QPel : No

Format settings, GMC : No warppoints

Format settings, Matrix : Default (H.263)

Codec ID : XVID

Codec ID/Hint : XviD

Duration : 1h 38mn

Bit rate : 475 Kbps

Width : 720 pixels

Height : 480 pixels

Display aspect ratio : 3:2

Frame rate : 29.970 fps

Original frame rate : 29.000 fps

Standard : NTSC

Color space : YUV

Chroma subsampling : 4:2:0

Bit depth : 8 bits

Scan type : Progressive

Compression mode : Lossy

Bits/(Pixel*Frame) : 0.046

Stream size : 335 MiB (25%)

Writing library : XviD 1.2.1 (UTC 2008-12-04)



Audio

ID : 1

Format : MPEG Audio

Format version : Version 1

Format profile : Layer 3

Mode : Joint stereo

Mode extension : MS Stereo

Codec ID : 55

Codec ID/Hint : MP3

Duration : 1h 38mn

Bit rate mode : Constant

Bit rate : 128 Kbps

Channel(s) : 2 channels

Sampling rate : 44.1 KHz

Compression mode : Lossy

Stream size : 19.7 MiB (1%)

Alignment : Aligned on interleaves

Interleave, duration : 32 ms (0.95 video frame)

Writing library : LAME3.98.2


http://img.sceper.eu/images/gzqwP.jpg

http://img.sceper.eu/images/CMhFX.jpg

http://img.sceper.eu/images/CFeWX.jpg

http://img.sceper.eu/images/KPmf.jpg



Release notes...



Another quality release from 3LT0N

More to come very soon!

Related torrents

Torrent NameAddedSizeSeedLeechHealth
7 days ago - in Movies862.85 MB00
15 days ago - in Movies725.07 MB00
1 Year+ - in Movies699.24 MB246
1 Year+ - in Movies699.24 MB00
1 Year+ - in Movies699.24 MB392

Comments (0 Comments)




Please login or create a FREE account to post comments

Latest Searches

| deluxe 320 | android games bike race | lady 6 guru | crack pants | great c journeys 1 2 | front line 2011 720p | sockittome | at midnight extended 2017 | him her season 2 | Juvenile The Fundamentals 2014 |