Quick Browse
Movies
TV shows
Music
Games
Applications
Anime
Other
Facebook
Friends
Torrent Download
Free Movies
1337x.to
Torrent Downloads

Verified torrent Sherlock Holmes A Game of Shadows 2011 TS READNFO XViD - INSPiRAL


    Seeders : 1      Leechers : 0
Hash :9C57A14987905DF591084E23886565FC68036D56
Added :1 Year+ by memory100Verified torrent uploader in Movies
Size :1.96 GB
Stream :Watch Full Movies Online @ Movie4u
Share :









Warning! Do not Download Torrents Without a VPN!
Your IP Address is .   And Location is
Your Internet Provider and Government can track your torrent Activity!  Hide your IP ADDRESS with a VPN!
We Strongly Recommend Using SpyOFF Torrent VPN to Anonymize your Torrenting. It's FREE For 15 Days!

Note :

Please Update (Trackers Info) Before Downloading Torrents to See Updated Seeders And Leechers for Batter Download Speed.

Trackers List

Tracker NameLast CheckStatusSeedersLeechers




Torrent File Content (7 files)


Sherlock Holmes A Game of Shadows 2011 TS READNFO XViD - INSPiRAL
     att-networks.com.txt -
39 bytes

     sceneunderground.org.txt -
77 bytes

     Torrent downloaded from Demonoid.me.txt -
46 bytes

     Sherlock Holmes A Game of Shadows 2011 TS READNFO XViD - INSPiRAL.nfo -
3.53 KB

     SAMPLE - INSPiRAL.avi -
23.06 MB

     Sherlock Holmes A Game of Shadows 2011 TS READNFO XViD - INSPiRAL.avi -
1.93 GB

     HDSceneRG.txt -
115 bytes



Description



http://img26.imageshack.us/img26/1690/sherlockx.jpg

[code]
TITLE:

Sherlock Holmes A Game of Shadows 2011 TS READNFO XViD - INSPiRAL

IMDB:

http://www.imdb.com/title/tt1515091/


SOURCES:

VIDEO - 26k
AUDIO - 26k Bida / Unknown
SUBS - ENG HC

STATS:

Video
ID : 0
Format : MPEG-4 Visual
Format profile : Advanced [email protected]
Format settings, BVOP : 2
Format settings, QPel : No
Format settings, GMC : No warppoints
Format settings, Matrix : Default (MPEG)
Muxing mode : Packed bitstream
Codec ID : XVID
Codec ID/Hint : XviD
Duration : 2h 0mn
Bit rate : 2 165 Kbps
Width : 720 pixels
Height : 304 pixels
Display aspect ratio : 2.35:1
Frame rate : 25.000 fps
Color space : YUV
Chroma subsampling : 4:2:0
Bit depth : 8 bits
Scan type : Progressive
Compression mode : Lossy
Bits/(Pixel*Frame) : 0.396
Stream size : 1.82 GiB (94%)
Writing library : XviD 64

Audio
ID : 1
Format : MPEG Audio
Format version : Version 1
Format profile : Layer 3
Codec ID : 55
Codec ID/Hint : MP3
Duration : 2h 0mn
Bit rate mode : Constant
Bit rate : 128 Kbps
Channel(s) : 2 channels
Sampling rate : 44.1 KHz
Compression mode : Lossy
Stream size : 110 MiB (6%)
Alignment : Split accross interleaves
Interleave, duration : 40 ms (1.00 video frame)
Interleave, preload duration : 500 ms


NOTES:

Right video is same as our cam release and no work done more too it....this release is all about the audio.
We took bidas "synced" audio and resynced it the best we could.Fair to play to bida for even tempting to start it,but
after we grabbed it,we found it oos in 66 parts ranging from -200 - +600ms ...
Being the dumbasses we are we thought what the hell lets sit here for 8hr fecking hrs cutting this audio to pieces and resyncing it
Got too say there might be some slips ....hope we got them all,but don't want to say defo we did .Also there is some slight repeats of
words a couple of times,but until we get the original line audio ....this is the closest your getting to a sync'd release.
Oh and never again and i now hate fecking sherlock holmes !!
[/code]
Screens:
http://img440.imageshack.us/img440/8578/40158755.png

http://img191.imageshack.us/img191/7426/27171531.png

http://img440.imageshack.us/img440/5656/88339859.png

http://img502.imageshack.us/img502/3325/66844208.png

Related torrents

Torrent NameAddedSizeSeedLeechHealth
1 Year+ - in Movies2 GB52
1 Year+ - in Movies1.96 GB00
1 Year+ - in Movies755.53 MB1,4871,093
1 Year+ - in Movies755.53 MB1,3061,194
1 Year+ - in Movies1.96 GB12484

Comments (0 Comments)




Please login or create a FREE account to post comments

Latest Searches

| Woodman Casting X Vanessa Rodriguez | Private Gold 130 Wild Sex Resort WEBRip 1080p | aoki cant go home | tragic illusion 25 the rarities Paradise Lost | SneakySex Jill Kassidy Sneaking Around Her Brother | big tit fantasies Peta jensen | Vorstadtkrokodile | prettydirty piper perri good little girl part three new 06 july 2016 | Glynnis Campbell ebooks | ray donovan x265 utr season |