Quick Browse
Movies
TV shows
Music
Games
Applications
Anime
Other
Facebook
Advertising

Friends
Torrent Download
Movie4u
1337x.to
Torrent Downloads




Sherlock Holmes TS XVID - IMAGiNE


    Seeders : 415      Leechers : 125
Hash :A61CDB6ED76114E4541101DD8DB8BA907566407F
Added :1 Year+ in Movies
Size :1.44 GB
Stream :WATCH ONLINE @ Movie4u


Sherlock Holmes TS XVID - IMAGiNE
Free and Fast Download with Usenet 300GB+ free







Trackers List

Tracker NameLast CheckStatusSeedersLeechers




Torrent File Content (2 files)


Sherlock Holmes TS www.IWANNADOWNLOAD.com
     Sherlock Holmes TS XVID - IMAGiNE www.IWANNADOWNLOAD.com.avi -
1.43 GB

     Sherlock Holmes TS XVID - SAMPLE.avi -
13.36 MB



Description



http://i50.tinypic.com/28177no.jpg


Screens:

http://i49.tinypic.com/2ed0f92.png

http://i46.tinypic.com/5dvv9j.jpg

http://i45.tinypic.com/v654jc.jpg


[code]Video
ID : 0
Format : MPEG-4 Visual
Format profile : Advanced [email protected]
Format settings, BVOP : Yes
Format settings, QPel : No
Format settings, GMC : No warppoints
Format settings, Matrix : Default (MPEG)
Muxing mode : Packed bitstream
Codec ID : XVID
Codec ID/Hint : XviD
Duration : 2h 2mn
Bit rate : 1 472 Kbps
Width : 704 pixels
Height : 400 pixels
Display aspect ratio : 16/9
Frame rate : 25.000 fps
Resolution : 24 bits
Colorimetry : 4:2:0
Scan type : Progressive
Bits/(Pixel*Frame) : 0.209
Stream size : 1.26 GiB (88%)
Writing library : XviD 1.2.1 (UTC 2008-12-04)

Audio
ID : 1
Format : MPEG Audio
Format version : Version 1
Format profile : Layer 3
Codec ID : 55
Codec ID/Hint : MP3
Duration : 2h 2mn
Bit rate mode : Constant
Bit rate : 192 Kbps
Channel(s) : 2 channels
Sampling rate : 44.1 KHz
Resolution : 16 bits
Stream size : 168 MiB (11%)
Alignment : Split accross interleaves
Interleave, duration : 40 ms (1.00 video frame)
Interleave, preload duration : 500 ms[/code]

Related torrents

Torrent NameAddedSizeSeedLeechHealth
1 Year+ - in Movies1.44 GB7664
1 Year+ - in Movies2.03 GB00
1 Year+ - in Movies2.03 GB00
1 Year+ - in Movies2.03 GB6451,428
1 Year+ - in Movies2.03 GB4445

Comments (0 Comments)




Please login or create a FREE account to post comments

Latest Searches

| a bogie | hype 1996 dvdrip | the great gatsby ebook | the grass is greener 1960 1080p brrip x264 yify | my way the best | lolli pop lol wayne | redhead fuck | process the writing | Sade Mare Sweet Home | Brett Rossi Megan Rain |