Quick Browse
Movies
TV shows
Music
Games
Applications
Anime
Other
Facebook
Advertising

Friends
Torrent Download
Movie4u
1337x.to
Torrent Downloads




Shoot The Hero 2010 BDRip XviD~Striker~TDA


    Seeders : 1      Leechers : 1
Hash :A4D8D3EA8CD888FA14E5BE9641A555F5762742B2
Added :1 Year+ by striker123Verified torrent uploader in
Size :700.8 MB
Stream :WATCH ONLINE @ Movie4u


Shoot The Hero 2010 BDRip XviD~Striker~TDA
Free and Fast Download with Usenet 300GB+ free







Trackers List

Tracker NameLast CheckStatusSeedersLeechers




Torrent File Content (4 files)


Shoot The Hero 2010 BDRip XviD~Striker~TDA
     Shoot The Hero 2010 BDRip XviD~Striker~TDA.avi -
700.14 MB

     TeamTDA.jpg -
681.47 KB

     More Movies.url -
112 bytes

     Tracked By DesiAdda.com.txt -
23 bytes



Description



http://i56.tinypic.com/9qgthx.png


http://www.image.videorockers.in/hosted/90fd1472acca77fa1ca3fd9bf9c23760.jpg


http://i51.tinypic.com/n13txv.png


[CODE]
General

Format : AVI
Format/Info : Audio Video Interleave
File size : 700 MiB
Duration : 1h 20mn
Overall bit rate : 1 216 Kbps
Writing application : VirtualDubMod 1.5.10.2 (build 2540/release)
Writing library : VirtualDubMod build 2540/release

Video
ID : 0
Format : MPEG-4 Visual
Format profile : [email protected]
Format settings, BVOP : Yes
Format settings, QPel : No
Format settings, GMC : No warppoints
Format settings, Matrix : Default (H.263)
Codec ID : XVID
Codec ID/Hint : XviD
Duration : 1h 20mn
Bit rate : 1 074 Kbps
Width : 640 pixels
Height : 272 pixels
Display aspect ratio : 2.35:1
Frame rate : 23.976 fps
Resolution : 24 bits
Colorimetry : 4:2:0
Scan type : Progressive
Bits/(Pixel*Frame) : 0.257
Stream size : 618 MiB (88%)
Writing library : XviD 1.2.1 (UTC 2008-12-04)

Audio
ID : 1
Format : MPEG Audio
Format version : Version 1
Format profile : Layer 3
Codec ID : 55
Codec ID/Hint : MP3
Duration : 1h 20mn
Bit rate mode : Variable
Bit rate : 130 Kbps
Nominal bit rate : 128 Kbps
Channel(s) : 2 channels
Sampling rate : 48.0 KHz
Resolution : 16 bits
Stream size : 74.7 MiB (11%)
Alignment : Aligned on interleaves
Interleave, duration : 24 ms (0.58 video frame)
Interleave, preload duration : 396 ms
Writing library : LAME3.90.
Encoding settings : -m j -V 4 -q 2 -lowpass 17.6 --abr 128


[/CODE]

http://i51.tinypic.com/2cgga6v.png


http://i51.tinypic.com/14cxra1.jpg


http://i55.tinypic.com/2dah9bk.png

Related torrents

Torrent NameAddedSizeSeedLeechHealth
1 Year+ - in Movies700.14 MB00
1 Year+ - in Movies700.14 MB11
1 Year+ - in Movies700.15 MB00
1 Year+ - in Movies700.15 MB00
1 Year+ - in Movies709.93 MB43

Comments (0 Comments)




Please login or create a FREE account to post comments

Latest Searches

| a tale of a two sisters | Leigh Rose Leighs First Anal | fat joe remy ma jay z all the way up | VdateGames Virtual Date Games Rachel 3 | The Hunger Games 2012 English DVDRip x264 WBZ | big bang theory s10e10 | It s been so long living | c est le vent | VdateGames Virtual Date Games Tara | Under Soil Dirt |