Quick Browse
Movies
TV shows
Music
Games
Applications
Anime
Other
Facebook
Advertising

Friends
Torrent Download
Movie4u
1337x.to
Torrent Downloads




Shooter, [BDrip 1080p - H264 - Ita Eng - MultiSub] [TNT VILLAGE]


    Seeders : 35      Leechers : 44

Trackers List

Tracker NameLast CheckStatusSeedersLeechers




Torrent File Content (1 file)


     Shooter.mkv -
7.95 GB



Description



Shooter

http://nextube.org/forum/images/imported/2011/01/271.jpg


.: Technical Info :.

Title:Shooter
Country:USA
Year:2007
Genre:Action
Director:Antoine Fuqua
Production:Lorenzo di Bonaventura,Ric Kidney
Distribution:Universal Pictures
Cast:
Mark Wahlberg: Bob Lee Swagger
Danny Glover: Colonnello Isaac Johnson
Ned Beatty: Senatore Charles F. Meachum
Michael Peña: Nick Memphis
Kate Mara: Sarah Fenn
Elias Koteas: Jack Payne
Rhona Mitra: Alourdes Galindo
Rade Šerbedžija: Michael Sandor
Tate Donovan: Russ Turner
Lane Garrison: Donnie Fenn


.: Plot :.[/color]

A marksman living in exile is coaxed back into action after learning of a plot to kill the president. Ultimately double-crossed and framed for the attempt, he goes on the run to track the real killer and find out who exactly set him up, and why.


.: Technical Report :.


.:General:.
[color=black]Unique ID : 184068833878559844501865109812491092125 (0x8A7A5E2EA9A4A0049389E7E38670809D)
Complete name : C:\Users\Pizza\Desktop\Shooter.2007.BluRay.1080p.AC3.ITA.AC3.ENG.x264-Wiggaz.mkv
Format : Matroska
File size : 7.95 GiB
Duration : 2h 5mn
Overall bit rate : 9 057 Kbps
Encoded date : UTC 2011-03-21 13:40:17
Writing application : mkvmerge v4.5.0 ('Speed of Light') built on Feb 1 2011 02:10:32
Writing library : libebml v1.2.0 + libmatroska v1.1.0

.:Video:.
ID : 1
Format : AVC
Format/Info : Advanced Video Codec
Format profile : [email protected]
Format settings, CABAC : Yes
Format settings, ReFrames : 4 frames
Codec ID : V_MPEG4/ISO/AVC
Duration : 2h 5mn
Bit rate : 7 776 Kbps
Width : 1 920 pixels
Height : 800 pixels
Display aspect ratio : 2.40:1
Frame rate : 23.976 fps
Color space : YUV
Chroma subsampling : 4:2:0
Bit depth : 8 bits
Scan type : Progressive
Bits/(Pixel*Frame) : 0.211
Stream size : 6.67 GiB (84%)
Title : Video Bitrate = 7776 kbps
Writing library : x264 core 114 r1913 5fd3dce
Language : English

.:Audio #1:.[/color]
ID : 2
Format : AC-3
Format/Info : Audio Coding 3
Mode extension : CM (complete main)
Codec ID : A_AC3
Duration : 2h 5mn
Bit rate mode : Constant
Bit rate : 640 Kbps
Channel(s) : 6 channels
Channel positions : Front: L C R, Side: L R, LFE
Sampling rate : 48.0 KHz
Bit depth : 16 bits
Compression mode : Lossy
Stream size : 575 MiB (7%)
Title : AC3 ITA 5.1 640 kbps
Language : Italian

.:Audio #2:.
ID : 3
Format : AC-3
Format/Info : Audio Coding 3
Mode extension : CM (complete main)
Codec ID : A_AC3
Duration : 2h 5mn
Bit rate mode : Constant
Bit rate : 640 Kbps
Channel(s) : 6 channels
Channel positions : Front: L C R, Side: L R, LFE
Sampling rate : 48.0 KHz
Bit depth : 16 bits
Compression mode : Lossy
Stream size : 575 MiB (7%)
Title : AC3 ENG 5.1 640 kbps
Language : English

.:Text #1:.
[color=black]ID : 4
Format : UTF-8
Codec ID : S_TEXT/UTF8
Codec ID/Info : UTF-8 Plain Text
Title : SUB ITA Forced
Language : Italian

.:Text #2:.
ID : 5
Format : UTF-8
Codec ID : S_TEXT/UTF8
Codec ID/Info : UTF-8 Plain Text
Title : SUB ITA
Language : Italian

.:Text #3:.
ID : 6
Format : VobSub
Muxing mode : zlib
Codec ID : S_VOBSUB
Codec ID/Info : The same subtitle format used on DVDs
Title : SUB ITA (VobSub)
Language : Italian

.:Text #4:.
ID : 7
Format : UTF-8
Codec ID : S_TEXT/UTF8
Codec ID/Info : UTF-8 Plain Text
Title : SUB ENG
Language : English

.:Menu:.
00:00:00.000 : it:CAPITOLO 1
00:08:13.118 : it:CAPITOLO 2
00:16:22.690 : it:CAPITOLO 3
00:23:13.309 : it:CAPITOLO 4
00:31:37.145 : it:CAPITOLO 5
00:39:02.632 : it:CAPITOLO 6
00:44:25.246 : it:CAPITOLO 7
00:51:27.293 : it:CAPITOLO 8
00:57:52.427 : it:CAPITOLO 9
01:05:09.739 : it:CAPITOLO 10
01:11:44.592 : it:CAPITOLO 11
01:18:00.801 : it:CAPITOLO 12
01:23:32.299 : it:CAPITOLO 13
01:29:56.891 : it:CAPITOLO 14
01:36:00.588 : it:CAPITOLO 15
01:39:56.657 : it:CAPITOLO 16
01:50:08.644 : it:CAPITOLO 17
01:55:31.341 : it:CAPITOLO 18
02:00:28.930 : it:CAPITOLO 19






.:Screenshot:.


http://img233.imageshack.us/img233/7291/immagineibb.th.png

http://img268.imageshack.us/img268/2982/immagine2rm.th.png

http://img13.imageshack.us/img13/3492/immagine3oqb.th.png

http://img813.imageshack.us/img813/3558/immagine4vp.th.png

http://img856.imageshack.us/img856/154/immagine5c.th.png

http://img14.imageshack.us/img14/2571/immagine6ku.th.png

Related torrents

Torrent NameAddedSizeSeedLeechHealth
1 Year+ - in Movies745.86 MB132
1 Year+ - in Movies7.66 GB85
1 Year+ - in Movies2.48 GB12
1 Year+ - in Movies7.78 GB924
Verified torrent
1 Year+ - in Movies709.37 MB92

Comments (0 Comments)




Please login or create a FREE account to post comments

Latest Searches

| Elvis And Nixon 2016 1080p BluRay DTS x264 ETRG mkv | ratchet e clank il film ita | Tp 2 kelly | B O B strange clouds | ferland jean pierre | lil wayne still my homies | ratchet e clank ita ita | mercedes w | Mi Primer 4 | pinkotgirl |