Quick Browse
Movies
TV shows
Music
Games
Applications
Anime
Other
Facebook
Advertising

Friends
Torrent Download
Movie4u
1337x.to
Torrent Downloads




Shorts (2009)(MPEG-4)(IPONE)(NL SUBS)(H33T)(Pioen)(2Lions-Team)


    Seeders : 18      Leechers : 42

Trackers List

Tracker NameLast CheckStatusSeedersLeechers




Torrent File Content (5 files)


Shorts (2009)(Dutch)(MPEG-4)(IPONE) 2Lions-Team
    INFO 2Lions-Team
          logo 2Lions.jpg -
314.99 KB

          Shorts (2009).jpg -
24.57 KB

          Shorts (2009)(Dutch)(MPEG-4)(IPONE) 2Lions-Team.txt -
4.37 KB

          Torrents aan geboden door _2lions.ons-forum.nl.txt -
583 bytes

    Movie
          Shorts (2009).mp4 -
1.01 GB



Description



Shorts (2009)(Dutch)(MPEG-4)(IPONE) 2Lions-Team

http://img685.imageshack.us/img685/7853/shorts2009.jpg


Verenigde Staten / Verenigde Arabische Emiraten
Familie
89 minuten

geregisseerd door Robert Rodriguez
met Jimmy Bennet, William H. Macy en Jon Cryer

Toe Thompson is een jongetje die graag vrienden wil maken, totdat er een mysterieuze, gekleurde steen uit de lucht komt vallen, op zijn hoofd nog wel. De steen zorgt ervoor dat het leven van Toe er vanaf dat moment heel anders uit gaat zien, aangezien het alle wensen vervult...

English

'Shorts' is set in the suburb of Black Falls, where all the houses look the same and everyone works for BLACK BOX Unlimited Worldwide Industries Incorporated, whose Mr. Black's BLACK BOX is the ultimate communication and do-it-all gadget that's sweeping the nation. Other than keeping his parents employed, however, Mr. Black's BLACK BOX has done nothing for 11-year-old Toe Thompson, who just wants to make a few friends...until a mysterious rainbow-colored rock falls from the sky, hits him in the head and changes everything. The Rainbow Rock does Mr. Black's BLACK BOX one better: it grants wishes to anyone who holds it. Before long, wishes-gone-wrong have left the neighborhood swarming with tiny spaceships, crocodile armies, giant boogers...and outrageous magical mayhem around every corner. But it's not until the grown-ups get their hands on the Rock that the trouble really starts. Now Toe and his newfound friends must join forces to save their town from itself, discovering along the way that what you wish for is not always what you want.


Release Name.......: Shorts.DVDR-CLUE
Source.............: Retail | NTSC | DVD9
Audio..............: Engels
Subtitles..........: Nederlands tnx to Astimo
Categorie : Beeld
Bron : Retail
Ondertitels : Nederlands (HARDCODED)

Format : MPEG-4
Format profile : Base Media
Codec ID : isom
File size : 1.01 GiB
Duration : 1h 28mn
Overall bit rate : 1 633 Kbps
Encoded date : UTC 2009-11-17 20:44:53
Tagged date : UTC 2009-11-17 20:44:53

Video
ID : 1
Format : MPEG-4 Visual
Format profile : [email protected]
Format settings, BVOP : No
Format settings, QPel : No
Format settings, GMC : No warppoints
Format settings, Matrix : Default (H.263)
Codec ID : 20
Duration : 1h 28mn
Bit rate mode : Variable
Bit rate : 1 500 Kbps
Width : 720 pixels
Height : 406 pixels
Display aspect ratio : 16/9
Frame rate mode : Constant
Frame rate : 23.976 fps
Resolution : 24 bits
Colorimetry : 4:2:0
Scan type : Progressive
Bits/(Pixel*Frame) : 0.214
Stream size : 952 MiB (92%)
Writing library : Lavc51.40.4
Encoded date : UTC 2009-11-17 20:44:53
Tagged date : UTC 2009-11-17 20:44:53

Audio
ID : 2
Format : AAC
Format/Info : Advanced Audio Codec
Format version : Version 4
Format profile : LC
Format settings, SBR : No
Codec ID : 40
Duration : 1h 28mn
Bit rate mode : Variable
Bit rate : 128 Kbps
Channel(s) : 2 channels
Channel positions : L R
Sampling rate : 48.0 KHz
Resolution : 16 bits
Stream size : 81.2 MiB (8%)


Genre : Familiefilm

Weblink : http://www.moviemeter.nl/film/54696
Weblink : http://www.imdb.com/title/tt1100119

*****************************************


Brought to you by
Pioen
http://i226.photobucket.com/albums/dd118/FloraKing/Avator/bloemenmeisje.gif

2Lions Team



http://i845.photobucket.com/albums/ab16/hortencia9/_96637_four_weddings_and_a_funeral_.jpg



2Lions-Team for all your Dutch MOVIES and more

*****************************************

DON T HIT AND RUN Niet gelijk afhaken als de film binnen is blijf seeden.

Related torrents

Torrent NameAddedSizeSeedLeechHealth
1 Year+ - in Movies4.37 GB101335
1 Year+ - in Movies1.18 GB31
1 Year+ - in Movies1.13 GB13
1 Year+ - in Movies1.09 GB2215
1 Year+ - in Movies1.11 GB2333

Comments (0 Comments)




Please login or create a FREE account to post comments

Latest Searches

| dick s picks 5 | magix movie edit v16 | epub reader for | privatesociety drivin down the dirty higway 24 07 15 | zuz k | ACT PinkGold Ver 1 01 | ls PDF | The New York Times Best Sellers Fiction November 27 2016 | lesbian porn 18 | asia rap |