Quick Browse
Movies
TV shows
Music
Games
Applications
Anime
Other
Facebook
Friends
Torrent Download
Movie4u
1337x.to
Torrent Downloads

Siedmiu wspania?ych - The Magnificent Seven *2016* (60FPS) [1080p DTS-HD MA 7 1 AC3 BluRay x264-SONDA] [Lektor i Napisy PL] [ENG]


    Seeders : 0      Leechers : 0


Trackers List

Tracker NameLast CheckStatusSeedersLeechers




Torrent File Content (7 files)


The.Magnificent.Seven.2016.BDRip.1080p.60FPS.Sonda
     The.Magnificent.Seven.2016.PL.BDRip.1080p.60FPS.Sonda.mkv -
20.18 GB

     The.Magnificent.Seven.60FPS.jpg -
375.41 KB

     Torrent downloaded from sonda torrents at agusiq-torrents.pl.txt -
3.88 KB

     AgusiQ Zaprasza.url -
125 bytes

     Torrent downloaded from Sonda torrents at btstorrent.cc.txt -
85 bytes

     Torrent downloaded from Sonda torrents at AhaShare.com.txt -
58 bytes

     Torrent downloaded from sonda000 torrents at demonoid.ph.txt -
23 bytes



Description



Movies : Western : HD 1080p / 1080i : English


Siedmiu wspania?ych - The Magnificent Seven *2016* (60FPS) 1080p.BDRip-Sonda
=============================================================

gatunek: Western
produkcja: USA
premiera: 23 wrze?nia 2016 (Polska) 8 wrze?nia 2016 (?wiat)
re?yseria: Antoine Fuqua
scenariusz: Nic Pizzolatto,Richard Wenk

http://www.imdb.com/title/tt2404435/

Obsada:

Denzel Washington ... Chisolm
Chris Pratt ... Josh Farraday
Ethan Hawke ... Goodnight Robicheaux
Vincent D'Onofrio ... Jack Horne
Byung-hun Lee ... Billy Rocks
Manuel Garcia-Rulfo ... Vasquez
Martin Sensmeier ... Red Harvest
Haley Bennett ... Emma Cullen

Opis:

Remake legendarnego westernu "Siedmiu wspania?ych" w re?yserii Antoine'a Fuqua ("Dzie? próby", "Do utraty si?"). Armia bandytów terroryzuje ma?? wiosk? na pograniczu ameryka?sko-meksyka?skim. Zrozpaczeni farmerzy zwracaj? si? z pro?b? o pomoc do grupy rewolwerowców. Siedmiu najemników postanawia stawi? czo?o przewa?aj?cym si?om przeciwnika, cho? wydaj? si? nie mie? szans. Czy najtwardsi rewolwerowcy b?d? w stanie uwolni? wiosk? spod bandyckich rz?dów? Czy zapewni? mieszka?com spokój i bezpiecze?stwo?

Storyline:

Director Antoine Fuqua brings his modern vision to a classic story in The Magnificent Seven. With the town of Rose Creek under the deadly control of industrialist Bartholomew Bogue, the desperate townspeople employ protection from seven outlaws, bounty hunters, gamblers and hired guns. As they prepare the town for the violent showdown that they know is coming, these seven mercenaries find themselves fighting for more than money.

Screenshot:







Dane techniczne:

General
Format : Matroska
Format version : Version 2
File size : 20.2 GiB
Duration : 2h 12mn
Overall bit rate mode : Variable
Overall bit rate : 21.8 Mbps
Movie name : The.Magnificent.Seven.2016.PL.BDRip.1080p.60FPS.Sonda
Encoded date : UTC 2016-12-25 17:29:51
Writing application : mkvmerge v5.7.0 ('The Whirlwind') built on Jul 8 2012 20:08:51
Writing library : libebml v1.2.3 + libmatroska v1.3.0

Video
ID : 1
Format : AVC
Format/Info : Advanced Video Codec
Format profile : [email protected]/* */
Format settings, CABAC : Yes
Format settings, ReFrames : 4 frames
Codec ID : V_MPEG4/ISO/AVC
Duration : 2h 12mn
Nominal bit rate : 18.0 Mbps
Width : 1 920 pixels
Height : 800 pixels
Display aspect ratio : 2.40:1
Frame rate mode : Constant
Frame rate : 60.000 fps
Original frame rate : 59.940 fps
Color space : YUV
Chroma subsampling : 4:2:0
Bit depth : 8 bits
Scan type : Progressive
Bits/(Pixel*Frame) : 0.195
Title : 60FPS Rip by Sonda
Writing library : x264
Encoding settings : cabac=1 / ref=4 / deblock=1:-1:-1 / rc=2pass
Default : Yes
Forced : No

Audio #1
ID : 2
Format : AC-3
Format/Info : Audio Coding 3
Mode extension : CM (complete main)
Format settings, Endianness : Big
Codec ID : A_AC3
Duration : 2h 12mn
Bit rate mode : Constant
Bit rate : 384 Kbps
Channel count : 6 channels
Channel positions : Front: L C R, Side: L R, LFE
Sampling rate : 48.0 KHz
Bit depth : 16 bits
Compression mode : Lossy
Stream size : 365 MiB (2%)
Title : AC3 5.1 Lektor PL
Language : Polish
Default : Yes
Forced : Yes

Audio #2
ID : 3
Format : AC-3
Format/Info : Audio Coding 3
Mode extension : CM (complete main)
Format settings, Endianness : Big
Codec ID : A_AC3
Duration : 2h 12mn
Bit rate mode : Constant
Bit rate : 640 Kbps
Channel count : 6 channels
Channel positions : Front: L C R, Side: L R, LFE
Sampling rate : 48.0 KHz
Bit depth : 16 bits
Compression mode : Lossy
Stream size : 608 MiB (3%)
Title : AC3 5.1 ENG
Language : English
Default : No
Forced : No

Audio #3
ID : 4
Format : DTS
Format/Info : Digital Theater Systems
Format profile : MA / Core
Mode : 16
Format settings, Endianness : Big
Codec ID : A_DTS
Duration : 2h 12mn
Bit rate mode : Variable
Bit rate : 2708 / 1 509 Kbps
Channel count : 8 channels / 6 channels
Channel positions : Front: L C R, Side: L R, Back: L R, LFE / Front: L C R, Side: L R, LFE
Sampling rate : 48.0 KHz
Bit depth : 16 bits
Compression mode : Lossless / Lossy
Title : DTS-HD MA 7.1
Language : English
Default : No
Forced : No

Text #1
ID : 5
Format : UTF-8
Codec ID : S_TEXT/UTF8
Codec ID/Info : UTF-8 Plain Text
Title : napisy PL.srt
Language : Polish
Default : No
Forced : No

Text #2
ID : 6
Format : UTF-8
Codec ID : S_TEXT/UTF8
Codec ID/Info : UTF-8 Plain Text
Title : napisy ENG.srt
Language : English
Default : No
Forced : No

Text #3
ID : 7
Format : PGS
Muxing mode : zlib
Codec ID : S_HDMV/PGS
Codec ID/Info : The same subtitle format used on BDs/HD-DVDs
Title : napisy PL.sup
Language : Polish
Default : No
Forced : No

Text #4
ID : 8
Format : PGS
Muxing mode : zlib
Codec ID : S_HDMV/PGS
Codec ID/Info : The same subtitle format used on BDs/HD-DVDs
Title : napisy ENG.sup
Language : English
Default : No
Forced : No

Source:
A/V-The Magnificent Seven (2016) Blu-ray CEE 1080p AVC DD5.1- HDCLUB
Thanks - Sonda



Facebook Twitter Google Digg Reddit LinkedIn StumbleUpon Email Show Demonoid some love with BitCoin: 1DNoidJdotDyNMm5CxA8XfbgCH8KsCjco3 How to get BitCoins?

Related torrents

Torrent NameAddedSizeSeedLeechHealth
11 months ago - in Movies20.38 GB22
3 months ago - in Movies12.98 GB00
1 Year+ - in Movies23.34 GB16
1 Year+ - in Movies15.91 GB00
1 Year+ - in Movies18.91 GB15

Comments (0 Comments)




Please login or create a FREE account to post comments

Latest Searches

| The New Pornographers conditions | GFRevenge Raylin Ann | students homework | ATKExotics 16 01 03 Nenetl Avril Toys 1080p MP4 KTR N1C | GloryHole Stella Cox Jade Jantzen | Kamasutra Marc Dorcel | shower ebony | Blacked Carolina Sweets Rich Girl Desires Part 2 | luna mickey | The White Princess S01E02 WEBRip x264 FS |